ML
     
  Уважаемый Гость!
Вы можете поддержать проект и зарегистрироваться у наших партнеров - онлайн-стратегия MyLands. При регистрации в игре Вы получите код, который сможете активировать после регистрации на pirat.ca и получить 1000 дублонов.

Ваш код:
47bfc18b89c74e4ae0d974e9b6943639e2bff08e
 
     

Каскадеры: невидимые звезды / Они звезды / Звездные трюки / Stunt Stars (Сезон: 1 / Серии: 10 из 12) (Фил Комю / Phil Comeau) [2008 г., Документальный, HDTVRip] MVO

Ответить на тему
 
Автор
Сообщение

Пост 05-Фев-2012 19:56

[Q] 

UcrusPazzo

Каскадеры: невидимые звезды / Они звезды / Звездные трюки / Stunt Stars -Год выпуска: 2008
Производство: Канада
Жанр: Документальный
Продолжительность серии: 00:43:00, общее время - 07:13:36
Перевод: Профессиональный (одноголосый, закадровый)
Оригинальный аудиопоток: английский
Субтитры: отсутствуют-Режиссер: Фил Комю / Phil Comeau-Описание: Как правило, их имена известны только в узком кругу профессионалов, их лица почти никогда не появляются в кадре, а их опасная работа редко бывает оценена по достоинству. Но во многом громкий зрительский успех фильмов и сериалов складывается именно благодаря их опасным и зрелищным трюкам.
Этот сериал расскажет всю правду о скрытом мире каскадеров. Его герои живыми и невредимыми, в буквальном смысле, проходят через огонь и воду. Для каскадеров их рискованная работа – смысл жизни. Они доводят каждый трюк до совершенства. Но что в действительности заставляет этих реальных супергероев бесстрашно бросаться вниз с крыши 10-этажного здания, охотно разбиваться на скоростном мотоцикле, с готовностью идти в огненное пекло? Неужели только погоня за острыми ощущениями, превратившаяся в смысл жизни?
Вы попадете в закулисье подготовки самых захватывающих и сложных трюков, чтобы собственными глазами увидеть, как тщательно и скрупулезно идет работа над тем, что промелькнет на экране в доли секунды. Впечатляющие батальные сцены, трюки в воздухе, автокатастрофы, падение в бездну – у каждого трюка свои секреты, и не один из них не ускользнет от вашего внимания.
Каскадеры своей работой радикально меняют представления о пределе физических возможностей человека. Решиться на невозможное и блестяще исполнить то, о чем даже подумать страшно, – для них это не просто вызов человеческой природе, а страстное желание доказать себе и окружающим, что нет ничего невозможного для сильных духом.
Серия 01. Фильм: Никогда не сдавайся
Серия 02. Фильм: Крик Вдали
Серия 03. Школа каскадёров
Серия 04. Фильм: Обжигающий холод
Серия 05. Фильм: Ложь и иллюзии
Серия 06. Фильм: Теккен
Серия 07. Сериал: 4400
Серия 08. Фильм: Жить и умереть
Серия 09. Фильм: Пашендаль
Серия 10. Фильм: По ту сторону разумного сомнения-Источник/Качество: HDTVRip
Формат: AVI
Видео кодек: XviD
Аудио кодек: AC3
Видео: 720x408 (1.76:1), 25 fps, XviD MPEG-4 ~1485 kbps avg, 0.20 bit/pixel (серии одинаковы по данным)
Аудио: 48 kHz, AC3 Dolby Digital, 3/2 (L,C,R,l,r) + LFE ch, ~384 kbps Русский
Аудио #2: 48 kHz, AC3 Dolby Digital, 3/2 (L,C,R,l,r) + LFE ch, ~384 kbps Английский
Общее
Формат : AVI
Формат/Информация : Audio Video Interleave
Размер файла : 703 Мбайт
Продолжительность : 43 м.
Общий поток : 2269 Кбит/сек
Программа кодирования : VirtualDubMod 1.5.10.2 (build 2542/release)
Библиотека кодирования : VirtualDubMod build 2542/release
Видео
Идентификатор : 0
Формат : MPEG-4 Visual
Профиль формата : Advanced [email protected]
Параметр BVOP формата : 2
Параметр QPel формата : Нет
Параметр GMC формата : Без точки перехода
Параметр матрицы формата : Default (H.263)
Режим смешивания : Сжатый битовый поток
Идентификатор кодека : XVID
Идентификатор кодека/Подсказка : XviD
Продолжительность : 43 м.
Битрейт : 1486 Кбит/сек
Ширина : 720 пикселей
Высота : 408 пикселей
Соотношение сторон : 16:9
Частота кадров : 25,000 кадров/сек
Цветовое пространство : YUV
Субдискретизация насыщенности : 4:2:0
Битовая глубина : 8 бит
Тип развёртки : Прогрессивная
Метод сжатия : С потерями
Бит/(Пиксели*Кадры) : 0.202
Размер потока : 461 Мбайт (66%)
Библиотека кодирования : XviD 1.2.1 (UTC 2008-12-04)
Аудио #1
Идентификатор : 1
Формат : AC-3
Формат/Информация : Audio Coding 3
Расширение режима : CM (complete main)
Идентификатор кодека : 2000
Продолжительность : 43 м.
Вид битрейта : Постоянный
Битрейт : 384 Кбит/сек
Каналы : 6 каналов
Расположение каналов : Front: L C R, Side: L R, LFE
Частота : 48,0 КГц
Битовая глубина : 16 бит
Метод сжатия : С потерями
Задержка видео : 30 мс.
Размер потока : 119 Мбайт (17%)
Выравнивание : Разделение по промежуткам
Продолжительность промежутка : 40 мс. (1,00 видеокадр)
Время предзагрузки промежутка : 500 мс.
Аудио #2
Идентификатор : 2
Формат : AC-3
Формат/Информация : Audio Coding 3
Расширение режима : CM (complete main)
Идентификатор кодека : 2000
Продолжительность : 43 м.
Вид битрейта : Постоянный
Битрейт : 384 Кбит/сек
Каналы : 6 каналов
Расположение каналов : Front: L C R, Side: L R, LFE
Частота : 48,0 КГц
Битовая глубина : 16 бит
Метод сжатия : С потерями
Задержка видео : 22 мс.
Размер потока : 119 Мбайт (17%)
Выравнивание : Разделение по промежуткам
Продолжительность промежутка : 40 мс. (1,00 видеокадр)
Время предзагрузки промежутка : 500 мс.
Download / Скачать

Хотите скачать бесплатно? Зарегистрируйтесь на сайте (ссылка на регистрацию). Pirat.ca - самый быстрый торрент трекер в рунете!

Как скачивать  ·   Что такое торрент  ·   Рейтинг и ограничения

Показать сообщения:    
Ответить на тему

Текущее время: Сегодня 07:02

Часовой пояс: GMT + 4



Вы не можете начинать темы
Вы не можете отвечать на сообщения
Вы не можете редактировать свои сообщения
Вы не можете удалять свои сообщения
Вы не можете голосовать в опросах
Вы не можете прикреплять файлы к сообщениям
Вы не можете скачивать файлы

▼ Вниз