Discovery. Аляска: семья из леса / Discovery. Alaskan Bush People / Сезон: 5 / Серии: 1-2 [2017 г., документальный, выживание, HDTVRip] MVO

Ответить на тему
 
Автор
Сообщение

Пост 29-Июл-2017 16:09

[Q] 

Железный DVD

Лоцман

-Discovery. Аляска: семья из леса 5 Сезон 1-2 Серии / Discovery. Alaskan Bush People -- Производство: США
Жанр: документальный, выживание
Год выпуска: 2017 г.
Продолжительность: 2 x 00:43:00
Перевод: Профессиональный (многоголосый, закадровый)
Автор(ы) перевода: Discovery
Режиссёр: Т.Дж. Шанкс, Джейсон Берман, Эзра Эпвелл-В ролях: Семья Браунов—Билл Браун, Гэйб Браун, Мэтт Браун, Ноа Браун, Сноубёрд Браун и др.-Описание: "Вдали от цивилизации, в глубине безлюдных просторов Аляски живёт семья из 9 человек. Вдали от обычной американской жизни у них сформировались собственные традиции, собственный акцент и собственные законы выживания. Когда окружающий мир наступает они отстаивают право на жизнь в лесу. Это жизнь на последнем рубеже."-Качество видео: HDTVRip
Контейнер: AVI
Видео кодек: XviD
Аудио кодек: MP3
Видео: 720x400 (16:9), XviD build 50 ~1199 kbps avg, 0.25 bit/pixel, 30 fps
Аудио: 44 kHz, MPEG Layer 3, 2 ch, ~128.00 kbps avg
Cубтитры: отсутствуют
Общее
Полное имя : F:\Torrent\Фильмы на LG\Аляска Семья из леса S05\Аляска Семья из леса S05E01.avi
Формат : AVI
Формат/Информация : Audio Video Interleave
Размер файла : 408 Мбайт
Продолжительность : 42 м. 33 с.
Общий поток : 1199 Кбит/сек
Программа кодирования : Lavf52.61.0
Видео
Идентификатор : 0
Формат : MPEG-4 Visual
Профиль формата : Simple@L3
Параметр BVOP формата : Нет
Параметр QPel формата : Нет
Параметр GMC формата : Без точки перехода
Параметр матрицы формата : Default (H.263)
Идентификатор кодека : XVID
Идентификатор кодека/Подсказка : XviD
Продолжительность : 42 м. 33 с.
Битрейт : 1200 Кбит/сек
Ширина : 720 пикселей
Высота : 400 пикселей
Соотношение сторон : 16:9
Частота кадров : 30,000 кадров/сек
Цветовое пространство : YUV
Субдискретизация насыщенности : 4:2:0
Битовая глубина : 8 бит
Тип развёртки : Прогрессивная
Метод сжатия : С потерями
Бит/(Пиксели*Кадры) : 0.167
Размер потока : 365 Мбайт (90%)
Библиотека кодирования : XviD 1.2.1 (UTC 2008-12-04)
Аудио
Идентификатор : 1
Формат : MPEG Audio
Версия формата : Version 1
Профиль формата : Layer 3
Режим : Joint stereo
Расширение режима : MS Stereo
Идентификатор кодека : 55
Идентификатор кодека/Подсказка : MP3
Продолжительность : 42 м. 33 с.
Вид битрейта : Постоянный
Битрейт : 128 Кбит/сек
Каналы : 2 канала
Частота : 44,1 КГц
Метод сжатия : С потерями
Размер потока : 39,0 Мбайт (10%)
Выравнивание : Соединение по промежуткам
Продолжительность промежутка : 26 мс. (0,65 видеокадр)
Время предзагрузки промежутка : 26 мс.
При каждом добавлении создётся новый торрент. Чтобы начать докачку новой серии, пользователям необходимо сделать следующее:
(1) остановить скачивание,
(2) удалить старый торрент у себя из клиента (старые серии удалять не надо),
(3) скачать новый торрент и запустить его у себя в клиенте вместо старого, при этом указать клиенту путь в старую папку куда и должно происходить скачивание новых серий.
Ваш клиент при этом должен произвести хеширование (проверку) старой папки (если не производит сам - помогите ему сделать это), и будет докачивать только те серии которых у вас ещё нет. Старые серии при этом не удаляются, а продолжают раздаваться!
Eсли вы уже удалили старые серии, то предотвратить повторную закачку старых серий можно, отжав галочку в соответсвующих местах при запуске нового торрента
]

Раздача создана специально для владельцев Железных старых DVD-плееров с USB, которые воспроизводят видео через USB без лагов только с низким битрейдом и низким разрешением видео на старых телеках. Также на электронных книгах, навигаторах, видеодомофонах, осциллографах и прочее.
Download / Скачать

Хотите скачать бесплатно? Зарегистрируйтесь на сайте (ссылка на регистрацию). Pirat.ca - самый быстрый торрент трекер в рунете!

Как скачивать  ·   Что такое торрент  ·   Рейтинг и ограничения



Последний раз редактировалось: Железный DVD (2017-08-07 16:35), всего редактировалось 6 раз(а)

Железный DVD ®

Лоцман

19

Пост 29-Июл-2017 16:11 (спустя 1 минута)

[Q] 

Эй проверяльщики, ну и как мне добавить следующую серию ?

_________________
Да мне мат кто ты и что ты
[Профиль]  [ЛС] 
Показать сообщения:    
Ответить на тему

Текущее время: Сегодня 09:04

Часовой пояс: GMT + 4



Вы не можете начинать темы
Вы не можете отвечать на сообщения
Вы не можете редактировать свои сообщения
Вы не можете удалять свои сообщения
Вы не можете голосовать в опросах
Вы не можете прикреплять файлы к сообщениям
Вы не можете скачивать файлы

Майнать ▼