ML
     
  Уважаемый Гость!
Вы можете поддержать проект и зарегистрироваться у наших партнеров - онлайн-стратегия MyLands. При регистрации в игре Вы получите код, который сможете активировать после регистрации на pirat.ca и получить 1000 дублонов.

Ваш код:
ba41f7961e0b4717aed6a401d955262223b8f6c4
 
     

"Интересно обо всем" - программа из цикла "Час вопросов обо всем" / How stuff works? (Anthony Lacques, Глория Моррис / Gloria Morris, Beata Ziel) [2009 г., Научно-популярный, познавательный, TVRip]

Ответить на тему
 
Автор
Сообщение

Пост 29-Окт-2011 23:16

[Q] 

Покемон

"Интересно обо всем" - программа из цикла "Час вопросов обо всем" / How stuff works?
Год выпуска: 2009
Страна: Великобритания
Жанр: Научно-популярный, познавательный
Продолжительность: 09:28:16
Перевод: Профессиональный (одноголосый)
Режиссер: Anthony Lacques, Глория Моррис / Gloria Morris, Beata Ziel
В ролях: Гейб Доран, Майк Сенезе
Описание: Программа "Интересно обо всем" выходит на Discovery Channel в рамках цикла "Час вопросов обо всем" и рассказывает о материалах, без которых сегодняшний мир просто невозможен. Посмотрите, как вода – самое важное в мире химическое соединение и основа самой жизни – является одновременно разрушительной природной стихией и колыбелью новой жизни. Вы также узнаете, как резина может быть и достаточно упругой для баскетбольных мячей, и достаточно пластичной для голливудских спецэффектов. Этот сериал Discovery Channel позволяет вам взглянуть на целый ряд самых невероятных предметов, которые делают из природных материалов.
Цивилизация проявляет себя и в большом, и в малом. Автомобиль и глоток утреннего кофе, горячий душ и полет на авиалайнере, аромат свежевыпеченного хлеба и металлургический завод. Путь от зрелого плода кофейного дерева до растворимого напитка, от железной руды до космического спутника, от песка до пуленепробиваемого стекла ― обо всем этом и рассказывает программа «Интересно обо всем».
Каждый выпуск сериала представляет собой подробное исследование превращения вещества в вещь. Заглядывая в плавильные цеха, мастерские заводов, фабрики по переработке сырья, на плантации и пшеничные поля, создатели «Интересного» рассказывают интереснейшие истории самых привычных вещей на Земле. Знать обо всем ― удел не только эрудитов, но и самого обычного телезрителя, если в нем еще живо детское любопытство.
Во втором сезоне выпуски в два раза длиннее, несколько смещены акценты передачи - это более исторические экскурсы, связанные с предметом программы.
Описание серий 1 сезон
01. Кукуруза Кукурузу можно превратить во что угодно - топливо, пластик и незаменимые лекарства. Мы расскажем о генетических секретах и ученых, которые превращают кукурузу в современное чудо.
02. Вода Вода - самая питательная и самая разрушительная природная стихия. Познакомьтесь с тем, как ученые используют ее мощь в гидроэнергетике и с новыми методами познания ее секретов.
03. Древесина В этой серии программа "Интересно обо всем" рассказывает о лесоповалах. Познакомьтесь с опасной работой по старинке и с современными высокотехнологичными методами. Также вы узнаете о производстве и переработке бумаги и отходов древесины.
04. Индейка Птицефабрики выращивают несколько миллионов индеек в год. Но как они попадают с ферм к нам на стол? Эта программа познакомит вас со всем процессом.
05. Пшеница Рассказ о том, как пшеница используется в повседневной жизни. Обычно она идет в пищевую промышленность, но, как ни странно, из нее делают и стройматериалы.
06. Пиво Рассказ о том, как варится пиво. Эксперты, пивовары и знатоки пива расскажут о новаторских способах варки пива.
07. Соль Эта серия программы Интересно обо всем рассказывает о соли и о том, как ее используют, в том числе и на кухне!
08. Резина Рассказ о том, как делается резина, которую используют в тысячах изделий от баскетбольных мячей до голливудских спецэффектов. Ученые даже создали резину, которая сама себя штопает!
09. Кофе Если вас интересует, как колумбийский кофе добирается из Колумбии до наших кафе, эта программа для вас. Познакомьтесь с теми, кто выращивает и жарит кофе - самый популярный напиток после воды.
10. Свинец Несмотря на опасность для здоровья человека, свинец является одним из самых ценных ресурсов на Земле. Вы увидите, как его используют повсюду - от аккумуляторов до спутников.
11. Алюминий Когда алюминий был только-только открыт человечеством, он считался драгоценным металлом. Изделия из алюминия стоили очень дорого, и лишь знатные дамы могли позволить себе алюминиевые броши или пуговицы. Сегодня это легкий, дешевый метал, который широко применяется в промышленности и в быту. Посмотрите, как из алюминия делают множество вещей – от от лазерных отражателей до деталей самолетов и пуленепробиваемого стекла.
12. Железо Как используется железо? Неожиданные факты о самом распространенном в природе металле, который можно найти не только в кастрюлях, но и в хлопьях, которые мы едим на завтрак!
Описание серий 2 сезон
01. Лето От пирамид до современного оружия, посмотрите, как наше любимое время года изменяет мир. Мы расскажем о научных аспектах и невероятных историях, связанных с летом.
02. Виски Виски - это не просто зерно и вода. От спасения китов до полетов на Луну, от мощения дорог до изобретения телевизора, виски помогает изменять наш мир.
03. Шоколад Его культивировали ацтеки, он помог выиграть Вторую мировую войну, преобразовал телевидение и может спасти джунгли. Все это - невероятная история шоколада.
04. Сухие завтраки Вы знаете, что зерновые помогли выиграть Вторую мировую войну, стоят у истоков современных банков и даже вызвали нашествие с Марса? И это только начало истории зерновых.
05. Рождество От создания Солнечной системы до изобретения искусственного сердца и отмены рабства: рассказ о том, как Рождество изменило наш мир.
06. Игры От шашек до бильярда: как игры изменили мир, начали революцию в Америке, помогли построить Великую Китайскую стену, положили конец Второй мировой войне, спасли слонов и так далее.
07. Деньги Неважно, из серебра сделаны деньги или нет, за ними стоит большее, чем просто покупательная способность. Рассказ об их влиянии с момента зарождения письменности и до наших дней.
Качество: TVRip
Формат: AVI
Видео кодек: XviD
Аудио кодек: MP3
Видео: 688x384, 704х400, 704х448, 672х432 (1.79:1), 25 fps, XviD MPEG-4 ~1501 kbps avg, 0.23 bit/pixel
Аудио: 48 kHz, MPEG Layer 3, 2 ch, ~128.00, ~96.00 kbps avg
Общее
Формат : AVI
Формат/Информация : Audio Video Interleave
Размер файла : 261 Мбайт
Продолжительность : 22 м.
Общий поток : 1635 Кбит/сек
Библиотека кодирования : TMPGEnc 4.0 XPress Version. 4.7.7.307
Видео
Идентификатор : 0
Формат : MPEG-4 Visual
Профиль формата : Advanced [email protected]
Параметр BVOP формата : 1
Параметр QPel формата : Нет
Параметр GMC формата : Без точки перехода
Параметр матрицы формата : Выборочная
Режим смешивания : Сжатый битовый поток
Идентификатор кодека : XVID
Идентификатор кодека/Подсказка : XviD
Продолжительность : 22 м.
Битрейт : 1500 Кбит/сек
Ширина : 688 пикселей
Высота : 384 пикселя
Соотношение сторон : 16:9
Частота кадров : 25,000 кадров/сек
Цветовое пространство : YUV
Субдискретизация насыщенности : 4:2:0
Битовая глубина : 8 бит
Тип развёртки : Прогрессивная
Метод сжатия : С потерями
Бит/(Пиксели*Кадры) : 0.227
Размер потока : 240 Мбайт (92%)
Библиотека кодирования : XviD 58
Аудио
Идентификатор : 1
Формат : MPEG Audio
Версия формата : Version 1
Профиль формата : Layer 3
Режим : Joint stereo
Идентификатор кодека : 55
Идентификатор кодека/Подсказка : MP3
Продолжительность : 22 м.
Вид битрейта : Постоянный
Битрейт : 128 Кбит/сек
Каналы : 2 канала
Частота : 48,0 КГц
Метод сжатия : С потерями
Размер потока : 20,4 Мбайт (8%)
Выравнивание : Разделение по промежуткам
Продолжительность промежутка : 250 мс. (6,25 видеокадров)
Время предзагрузки промежутка : 215 мс.










Общее
Формат : AVI
Формат/Информация : Audio Video Interleave
Размер файла : 256 Мбайт
Продолжительность : 21 м.
Общий поток : 1635 Кбит/сек
Библиотека кодирования : TMPGEnc 4.0 XPress Version. 4.7.7.307
Видео
Идентификатор : 0
Формат : MPEG-4 Visual
Профиль формата : Advanced [email protected]
Параметр BVOP формата : 1
Параметр QPel формата : Нет
Параметр GMC формата : Без точки перехода
Параметр матрицы формата : Выборочная
Режим смешивания : Сжатый битовый поток
Идентификатор кодека : XVID
Идентификатор кодека/Подсказка : XviD
Продолжительность : 21 м.
Битрейт : 1500 Кбит/сек
Ширина : 704 пикселя
Высота : 400 пикселей
Соотношение сторон : 16:9
Частота кадров : 25,000 кадров/сек
Цветовое пространство : YUV
Субдискретизация насыщенности : 4:2:0
Битовая глубина : 8 бит
Тип развёртки : Прогрессивная
Метод сжатия : С потерями
Бит/(Пиксели*Кадры) : 0.213
Размер потока : 235 Мбайт (92%)
Библиотека кодирования : XviD 58
Аудио
Идентификатор : 1
Формат : MPEG Audio
Версия формата : Version 1
Профиль формата : Layer 3
Режим : Joint stereo
Расширение режима : MS Stereo
Идентификатор кодека : 55
Идентификатор кодека/Подсказка : MP3
Продолжительность : 21 м.
Вид битрейта : Постоянный
Битрейт : 128 Кбит/сек
Каналы : 2 канала
Частота : 48,0 КГц
Метод сжатия : С потерями
Размер потока : 20,0 Мбайт (8%)
Выравнивание : Разделение по промежуткам
Продолжительность промежутка : 250 мс. (6,25 видеокадров)
Время предзагрузки промежутка : 207 мс.



Общее
Формат : AVI
Формат/Информация : Audio Video Interleave
Размер файла : 246 Мбайт
Продолжительность : 21 м.
Общий поток : 1635 Кбит/сек
Библиотека кодирования : TMPGEnc 4.0 XPress Version. 4.7.7.307
Видео
Идентификатор : 0
Формат : MPEG-4 Visual
Профиль формата : Advanced [email protected]
Параметр BVOP формата : 1
Параметр QPel формата : Нет
Параметр GMC формата : Без точки перехода
Параметр матрицы формата : Выборочная
Режим смешивания : Сжатый битовый поток
Идентификатор кодека : XVID
Идентификатор кодека/Подсказка : XviD
Продолжительность : 21 м.
Битрейт : 1499 Кбит/сек
Ширина : 704 пикселя
Высота : 448 пикселей
Соотношение сторон : 1,571
Частота кадров : 25,000 кадров/сек
Цветовое пространство : YUV
Субдискретизация насыщенности : 4:2:0
Битовая глубина : 8 бит
Тип развёртки : Прогрессивная
Метод сжатия : С потерями
Бит/(Пиксели*Кадры) : 0.190
Размер потока : 226 Мбайт (92%)
Библиотека кодирования : XviD 58
Аудио
Идентификатор : 1
Формат : MPEG Audio
Версия формата : Version 1
Профиль формата : Layer 3
Режим : Joint stereo
Расширение режима : MS Stereo
Идентификатор кодека : 55
Идентификатор кодека/Подсказка : MP3
Продолжительность : 21 м.
Вид битрейта : Постоянный
Битрейт : 128 Кбит/сек
Каналы : 2 канала
Частота : 48,0 КГц
Метод сжатия : С потерями
Размер потока : 19,3 Мбайт (8%)
Выравнивание : Разделение по промежуткам
Продолжительность промежутка : 250 мс. (6,25 видеокадров)
Время предзагрузки промежутка : 225 мс.

Общее
Формат : AVI
Формат/Информация : Audio Video Interleave
Размер файла : 499 Мбайт
Продолжительность : 44 м.
Общий поток : 1584 Кбит/сек
Библиотека кодирования : TMPGEnc 4.0 XPress Version. 4.7.7.307
Видео
Идентификатор : 0
Формат : MPEG-4 Visual
Профиль формата : Advanced [email protected]
Параметр BVOP формата : 1
Параметр QPel формата : Да
Параметр GMC формата : Без точки перехода
Параметр матрицы формата : Выборочная
Режим смешивания : Сжатый битовый поток
Идентификатор кодека : XVID
Идентификатор кодека/Подсказка : XviD
Продолжительность : 44 м.
Битрейт : 1481 Кбит/сек
Ширина : 672 пикселя
Высота : 432 пикселя
Соотношение сторон : 1,556
Частота кадров : 25,000 кадров/сек
Цветовое пространство : YUV
Субдискретизация насыщенности : 4:2:0
Битовая глубина : 8 бит
Тип развёртки : Прогрессивная
Метод сжатия : С потерями
Бит/(Пиксели*Кадры) : 0.204
Размер потока : 467 Мбайт (93%)
Библиотека кодирования : XviD 58
Аудио
Идентификатор : 1
Формат : MPEG Audio
Версия формата : Version 1
Профиль формата : Layer 3
Идентификатор кодека : 55
Идентификатор кодека/Подсказка : MP3
Продолжительность : 44 м.
Вид битрейта : Постоянный
Битрейт : 96,0 Кбит/сек
Каналы : 1 канал
Частота : 48,0 КГц
Метод сжатия : С потерями
Размер потока : 30,2 Мбайт (6%)
Выравнивание : Разделение по промежуткам
Продолжительность промежутка : 250 мс. (6,25 видеокадров)
Время предзагрузки промежутка : 215 мс.
Download / Скачать

Хотите скачать бесплатно? Зарегистрируйтесь на сайте (ссылка на регистрацию). Pirat.ca - самый быстрый торрент трекер в рунете!

Как скачивать  ·   Что такое торрент  ·   Рейтинг и ограничения



Последний раз редактировалось: Покемон (2011-11-07 07:01), всего редактировалось 4 раз(а)

UcrusPazzo

7670

Пост 31-Окт-2011 23:37 (спустя 2 дня)

[Q] 

Так как моя была раздача... показал как надо оформлять. Спасибо.
Пакемон, с этой раздачи бери пример... как оформлять остальные

_________________
[Профиль]  [ЛС] 

Artreds

Корсар

808

Пост 01-Ноя-2011 20:07 (спустя 20 часов)

[Q] 

Так как моя была раздача... показал как надо оформлять. Спасибо.
Пакемон, с этой раздачи бери пример... как оформлять остальные
Сам себя не похвалишь, никто не похвалит... )

_________________

[Профиль]  [ЛС] 

Alex_cross

42

Пост 12-Янв-2012 03:27 (спустя 2 месяца 10 дней)

[Q] 

спасибо

_________________
За Веру, Царя и Отечество!
[Профиль]  [ЛС] 

kalmyk73

Морской Волк

Пост 17-Дек-2012 17:32 (спустя 11 месяцев 5 дней)

[Q] 


_________________
Я люблю тебя жизнь ну а ты меня СНОВА И СНОВА.
[Профиль]  [ЛС] 
Показать сообщения:    
Ответить на тему

Текущее время: Сегодня 14:46

Часовой пояс: GMT + 4



Вы не можете начинать темы
Вы не можете отвечать на сообщения
Вы не можете редактировать свои сообщения
Вы не можете удалять свои сообщения
Вы не можете голосовать в опросах
Вы не можете прикреплять файлы к сообщениям
Вы не можете скачивать файлы

▼ Вниз