ML
     
  Уважаемый Гость!
Вы можете поддержать проект и зарегистрироваться у наших партнеров - онлайн-стратегия MyLands. При регистрации в игре Вы получите код, который сможете активировать после регистрации на pirat.ca и получить 1000 дублонов.

Ваш код:
822959f93c00d34653763d5bbf9ee9a7134af98a
 
     

Крутые взрывы (Взрыватели) / Extreme Explosions (Сезон: 1-2 / Серии: 1-12) (Discovery) [2009 г., Документальный, SATRip] MVO

Ответить на тему
 
Автор
Сообщение

Пост 01-Мар-2012 23:34

[Q] 

UcrusPazzo

Крутые взрывы (Взрыватели) / Extreme Explosions -Год выпуска: 2009
Производство: США
Жанр: Документальный
Продолжительность серии: 00:43:00
Перевод: Профессиональный (одноголосый, закадровый)
Субтитры: отсутствуют-Режиссер: Discovery-Описание: Специалисты по взрывам Бреден Ласк и Пол Ворсей получили эксклюзивный пропуск за кулисы самых крупных и сложных взрывов в мире. Они встречаются с командой высококвалифицированных подрывников, которые могут взорвать что угодно — от небоскребов и мощных стальных мостов до гигантских стадионов. Используя специальные камеры и высокоскоростные технологии, наши эксперты дают вам уникальную возможность посмотреть, как специалисты по взрывам разрушают гигантские строения одним нажатием кнопки. Познакомьтесь с их работой в зрелищной и ритмичной программе «Крутые взрывы». Все ли взрывы пройдут по плану?
Вам нужно что нибудь взорвать? Старый мост, устаревшую башню, дом идущий под снос или что по круче? Эти ребята - "крутые взрыватели" придут к вам на помощь и подорвут всё что угодно, главное что бы это было на пользу. В этой новой программе Discovery вы познакомитесь с людьми которые делают по настоящему "крутые взрывы".-Список серий:
Сезон 1.
Серия 01. Ливерпуль / Episode 01. Liverpool
Серия 02. Корал Гейблз / Episode 02. Coral Gables
Серия 03. Глазго / Episode 03. Glasgow
Серия 04. Бермуды / Episode 04. Bermuda
Серия 05. Фоксберг / Episode 05. Foxberg, Pa
Серия 06. Луисвилл, Кентукки / Episode 06. Louisville, Ky
Серия 07. Форт Уильям, Шотландия / Episode 07. Fort William, Scotland
Сезон 2.
Серия 08. Ньюкасл / Episode 08. Newcastle
Серия 09. Бисмарк, Северная Дакота / Episode 09. Bismarck, North Dakota
Серия 10. Вайртон, Западная Вирджиния / Episode 10. Weirton, West Virginia
Серия 11. Огайо, Вилла парк / Episode 11. Ohio, Villa Park
Серия 12. Лагос. Шарлотт, Северная Каролина / Episode 12. Lagos. Charlotte, North Carolina-Источник/Качество: SATRip
Формат: AVI
Видео кодек: XviD
Аудио кодек: MP3
Видео: 632x416 (1.52:1), 25 fps, XviD MPEG-4 ~1174 kbps avg, 0.18 bit/pixel (с 1 по 7 серию)
Видео #2: 656x368 (1.78:1), 25 fps, XviD MPEG-4 ~1400 kbps avg, 0.23 bit/pixel (с 8 по 12 серию)
Аудио: 48 kHz, MPEG Layer 3, 2 ch, ~128.00 kbps avg
Общее
Формат : AVI
Формат/Информация : Audio Video Interleave
Размер файла : 415 Мбайт
Продолжительность : 44 м.
Общий поток : 1313 Кбит/сек
Программа кодирования : VirtualDubMod 1.5.10.2 (build 2542/release)
Библиотека кодирования : VirtualDubMod build 2542/release
Видео
Идентификатор : 0
Формат : MPEG-4 Visual
Профиль формата : Advanced [email protected]
Параметр BVOP формата : 2
Параметр QPel формата : Нет
Параметр GMC формата : Без точки перехода
Параметр матрицы формата : Default (H.263)
Режим смешивания : Сжатый битовый поток
Идентификатор кодека : XVID
Идентификатор кодека/Подсказка : XviD
Продолжительность : 44 м.
Битрейт : 1175 Кбит/сек
Ширина : 632 пикселя
Высота : 416 пикселей
Соотношение сторон : 3:2
Частота кадров : 25,000 кадров/сек
Цветовое пространство : YUV
Субдискретизация насыщенности : 4:2:0
Битовая глубина : 8 бит
Тип развёртки : Прогрессивная
Метод сжатия : С потерями
Бит/(Пиксели*Кадры) : 0.179
Размер потока : 371 Мбайт (90%)
Библиотека кодирования : XviD 1.2.0.dev47 (UTC 2006-11-01)
Аудио
Идентификатор : 1
Формат : MPEG Audio
Версия формата : Version 1
Профиль формата : Layer 3
Режим : Joint stereo
Расширение режима : MS Stereo
Идентификатор кодека : 55
Идентификатор кодека/Подсказка : MP3
Продолжительность : 44 м.
Вид битрейта : Постоянный
Битрейт : 128 Кбит/сек
Каналы : 2 канала
Частота : 48,0 КГц
Метод сжатия : С потерями
Размер потока : 40,5 Мбайт (10%)
Выравнивание : Соединение по промежуткам
Продолжительность промежутка : 40 мс. (1,00 видеокадр)
Время предзагрузки промежутка : 504 мс.
Библиотека кодирования : LAME3.98 (alpha)
Общее
Формат : AVI
Формат/Информация : Audio Video Interleave
Размер файла : 484 Мбайт
Продолжительность : 43 м.
Общий поток : 1539 Кбит/сек
Программа кодирования : VirtualDubMod 1.5.10.2 (build 2542/release)
Библиотека кодирования : VirtualDubMod build 2542/release
Видео
Идентификатор : 0
Формат : MPEG-4 Visual
Профиль формата : Advanced [email protected]
Параметр BVOP формата : 2
Параметр QPel формата : Нет
Параметр GMC формата : Без точки перехода
Параметр матрицы формата : Default (H.263)
Режим смешивания : Сжатый битовый поток
Идентификатор кодека : XVID
Идентификатор кодека/Подсказка : XviD
Продолжительность : 43 м.
Битрейт : 1401 Кбит/сек
Ширина : 656 пикселей
Высота : 368 пикселей
Соотношение сторон : 16:9
Частота кадров : 25,000 кадров/сек
Цветовое пространство : YUV
Субдискретизация насыщенности : 4:2:0
Битовая глубина : 8 бит
Тип развёртки : Прогрессивная
Метод сжатия : С потерями
Бит/(Пиксели*Кадры) : 0.232
Размер потока : 441 Мбайт (91%)
Библиотека кодирования : XviD 1.2.1 (UTC 2008-12-04)
Аудио
Идентификатор : 1
Формат : MPEG Audio
Версия формата : Version 1
Профиль формата : Layer 3
Режим : Joint stereo
Расширение режима : MS Stereo
Идентификатор кодека : 55
Идентификатор кодека/Подсказка : MP3
Продолжительность : 43 м.
Вид битрейта : Постоянный
Битрейт : 128 Кбит/сек
Каналы : 2 канала
Частота : 48,0 КГц
Метод сжатия : С потерями
Размер потока : 40,3 Мбайт (8%)
Выравнивание : Соединение по промежуткам
Продолжительность промежутка : 40 мс. (1,00 видеокадр)
Время предзагрузки промежутка : 504 мс.
Библиотека кодирования : LAME3.98 (alpha)
Download / Скачать

Хотите скачать бесплатно? Зарегистрируйтесь на сайте (ссылка на регистрацию). Pirat.ca - самый быстрый торрент трекер в рунете!

Как скачивать  ·   Что такое торрент  ·   Рейтинг и ограничения

krasavchik34

Пост 19-Авг-2012 13:16 (спустя 5 месяцев 17 дней)

[Q] 

ay вау!!!!!!!! посмотрим.
[Профиль]  [ЛС] 

sanches997

Морской Волк

Пост 07-Июн-2013 18:43 (спустя 9 месяцев 19 дней)

[Q] 

[Профиль]  [ЛС] 

ElSkorpio

16

Пост 12-Май-2014 20:20 (спустя 11 месяцев 5 дней)

[Q] 

собсно если смотреть по серии раз в неделю наверное интересно, а так после второй, максимум третьей, надоедает.

_________________
[Профиль]  [ЛС] 

vetalvet1994

Штурман

Пост 30-Янв-2015 11:40 (спустя 8 месяцев 17 дней)

[Q] 

Спасибо!!! Автору респект!!!
[Профиль]  [ЛС] 
Показать сообщения:    
Ответить на тему

Текущее время: Сегодня 05:58

Часовой пояс: GMT + 4



Вы не можете начинать темы
Вы не можете отвечать на сообщения
Вы не можете редактировать свои сообщения
Вы не можете удалять свои сообщения
Вы не можете голосовать в опросах
Вы не можете прикреплять файлы к сообщениям
Вы не можете скачивать файлы

▼ Вниз