ML
     
  Уважаемый Гость!
Вы можете поддержать проект и зарегистрироваться у наших партнеров - онлайн-стратегия MyLands. При регистрации в игре Вы получите код, который сможете активировать после регистрации на pirat.ca и получить 1000 дублонов.

Ваш код:
6f9ab67d502902cc72a06c406977ddb589b7f39d
 
     

Discovery: Почему? Вопросы мироздания / Curiosity (Сезон: 1 / Серии: 1-13 из 16) (Ричард Дэйл / Richard Dale, Джонатан Хауг / Jonathan Haug, Ричард Макс / Richard Max) [2011 г., Документальный, научно-популярный, SATRip] MVO

Ответить на тему
 
Автор
Сообщение

Пост 04-Мар-2012 18:50

[Q] 

UcrusPazzo

Discovery: Почему? Вопросы мироздания / Curiosity -Год выпуска: 2011
Мировая премьера: 7 августа 2011
Производство: США, Darlow Smithson Productions, Discovery Channel
Жанр: Документальный, научно-популярный
Продолжительность серии: 13 серий ~ по 00:43:00, общее время - 10:07:48
Перевод: Профессиональный (одноголосый, закадровый)
Субтитры: отсутствуют-Режиссер: Ричард Дэйл / Richard Dale, Джонатан Хауг / Jonathan Haug, Ричард Макс / Richard Max
Сценарий: Грэхэм Бут, Ричард Дэйл, Райан О’Дауд
Продюсер: Алан Эйрс, Simon Andreae, Джон Кэвэна
Оператор: Simon Fanthorpe, Джон Пол Пеннебейкер, Джоэль Шварцберг
Композитор: Джоэль Дойк, Эндрю Кремер, Дарон Мерфи
Художник: Arnaud Brisebois, Кэт Ло, Anastasija Zilionyte
Монтаж: Том Эш, Саймон Гринвуд, Бен Хардинг-В ролях: Морган Фриман, Стивен Хокинг, Сэмюэл Л. Джексон, Терри О’Куинн, Билл Пэкстон, Мартин Шин, Todd Bracken, Фил Чидл, Бенедикт Камбербэтч, Max Tegmark-Описание: Одних интересует техника, других – география, третьих – астрономия, но есть вопросы, которые волнуют практически каждого человека независимо от возраста, образования и увлечений. Discovery Channel вместе со зрителями будет искать на них ответы в самом масштабном проекте в истории канала, который выходит в эфир в октябре под названием "Почему? Вопросы мироздания". Есть ли разумная жизнь на других планетах? Почему обычные люди могут превращаться в жестоких монстров? Как появилось все сущее? Какова природа привлекательности? Чем больше мы об этом узнаем, тем больше возникает загадок, и поиск истины, который идет тысячелетия, продолжается снова и снова. Но именно поэтому подобные вопросы нас так волнуют и увлекают – ведь чем сложнее задача, тем сильнее хочется ее решить.-Источник/Качество: SATRip
Формат: AVI
Видео кодек: XviD
Аудио кодек: MP3
Видео: 704x400 (1.76:1), 25 fps, XviD MPEG-4 ~1626 kbps avg, 0.23 bit/pixel (Все серии одинаковы по тех. данным)
Аудио: 48 kHz, MPEG Layer 3, 2 ch, ~128.00 kbps avg
Общее
Формат : AVI
Формат/Информация : Audio Video Interleave
Размер файла : 553 Мбайт
Продолжительность : 43 м.
Общий поток : 1764 Кбит/сек
Видео
Идентификатор : 0
Формат : MPEG-4 Visual
Профиль формата : Advanced [email protected]
Параметр BVOP формата : 1
Параметр QPel формата : Нет
Параметр GMC формата : Без точки перехода
Параметр матрицы формата : Выборочная
Идентификатор кодека : XVID
Идентификатор кодека/Подсказка : XviD
Продолжительность : 43 м.
Битрейт : 1626 Кбит/сек
Ширина : 704 пикселя
Высота : 400 пикселей
Соотношение сторон : 16:9
Частота кадров : 25,000 кадров/сек
Цветовое пространство : YUV
Субдискретизация насыщенности : 4:2:0
Битовая глубина : 8 бит
Тип развёртки : Прогрессивная
Метод сжатия : С потерями
Бит/(Пиксели*Кадры) : 0.231
Размер потока : 510 Мбайт (92%)
Библиотека кодирования : XviD 1.2.1 (UTC 2008-12-04)
Аудио
Идентификатор : 1
Формат : MPEG Audio
Версия формата : Version 1
Профиль формата : Layer 3
Идентификатор кодека : 55
Идентификатор кодека/Подсказка : MP3
Продолжительность : 43 м.
Source_Duration/String : 43 м.
Вид битрейта : Постоянный
Битрейт : 128 Кбит/сек
Каналы : 2 канала
Частота : 48,0 КГц
Метод сжатия : С потерями
Размер потока : 40,1 Мбайт (7%)
Выравнивание : Соединение по промежуткам
Продолжительность промежутка : 40 мс. (1,00 видеокадр)
Библиотека кодирования : LAME
http://curiosity.discovery.com/group/curiosity/about
http://en.wikipedia.org/wiki/Curiosity_(TV_series)
Download / Скачать

Хотите скачать бесплатно? Зарегистрируйтесь на сайте (ссылка на регистрацию). Pirat.ca - самый быстрый торрент трекер в рунете!

Как скачивать  ·   Что такое торрент  ·   Рейтинг и ограничения

tommek

Морской Волк

231

Пост 13-Апр-2012 23:29 (спустя 1 месяц 9 дней)

[Q] 

Посмотрим, люблю такие фильмы!

_________________
[Профиль]  [ЛС] 

patriarchurza

Штурман

33

Пост 12-Июн-2012 21:52 (спустя 1 месяц 28 дней)

[Q] 

[Профиль]  [ЛС] 

me14

999

Пост 13-Апр-2013 11:32 (спустя 10 месяцев)

[Q] 


_________________
Если вы все еще не забанены - это не ваша заслуга, а модераторская недоработка.
[Профиль]  [ЛС] 
Показать сообщения:    
Ответить на тему

Текущее время: Сегодня 16:32

Часовой пояс: GMT + 4



Вы не можете начинать темы
Вы не можете отвечать на сообщения
Вы не можете редактировать свои сообщения
Вы не можете удалять свои сообщения
Вы не можете голосовать в опросах
Вы не можете прикреплять файлы к сообщениям
Вы не можете скачивать файлы

▼ Вниз