ML
     
  Уважаемый Гость!
Вы можете поддержать проект и зарегистрироваться у наших партнеров - онлайн-стратегия MyLands. При регистрации в игре Вы получите код, который сможете активировать после регистрации на pirat.ca и получить 1000 дублонов.

Ваш код:
a978488e62322cd72e113ab723b8a7fdc10eb9b9
 
     

Discovery: Школа выживания военных моряков / Marine Corps Survival School (Серии: 1-2) (Carl Kriegeskotte) [2002-2003 гг., Документальный, SATRip] MVO

Ответить на тему
 
Автор
Сообщение

Пост 04-Мар-2012 22:45

[Q] 

UcrusPazzo

Discovery: Школа выживания военных моряков / Marine Corps Survival School -Год выпуска: 2002-2003
Производство: США, Канада, The Silver Owl Group Inc
Жанр: Документальный
Продолжительность серии: 00:47:00
Перевод: Профессиональный (одноголосый, закадровый)
Субтитры: отсутствуют-Режиссер: Carl Kriegeskotte-Описание: Посмотрите, как проходит подготовка морских пехотинцев в одном из самых крутых учебных заведений США. Выпускники школы могут сражаться практически в любой точке земного шара.-Источник/Качество: SATRip
Формат: AVI
Видео кодек: DivX
Аудио кодек: MP3
Видео: 704x528 (1.33:1), 29.970 fps, DivX Codec 5.x or 6.x ~1499 kbps avg, 0.13 bit/pixel
Видео #2: 704x512 (1.38:1), 29.970 fps, DivX Codec 5.x or 6.x ~1499 kbps avg, 0.14 bit/pixel
Аудио: 44.100 kHz, MPEG Layer 3, 2 ch, ~128.00 kbps avg
Общее 1 часть
Формат : AVI
Формат/Информация : Audio Video Interleave
Размер файла : 552 Мбайт
Продолжительность : 47 м.
Общий поток : 1641 Кбит/сек
Программа кодирования : Lavf51.12.1
Видео
Идентификатор : 0
Формат : MPEG-4 Visual
Профиль формата : [email protected]
Параметр BVOP формата : Нет
Параметр QPel формата : Нет
Параметр GMC формата : Без точки перехода
Параметр матрицы формата : Default (H.263)
Идентификатор кодека : DX50
Идентификатор кодека/Подсказка : DivX 5
Продолжительность : 47 м.
Битрейт : 1500 Кбит/сек
Ширина : 704 пикселя
Высота : 528 пикселей
Соотношение сторон : 4:3
Частота кадров : 29,970 кадров/сек
Цветовое пространство : YUV
Субдискретизация насыщенности : 4:2:0
Битовая глубина : 8 бит
Тип развёртки : Прогрессивная
Метод сжатия : С потерями
Бит/(Пиксели*Кадры) : 0.135
Размер потока : 505 Мбайт (91%)
Библиотека кодирования : Lavc51.40.4
Аудио
Идентификатор : 1
Формат : MPEG Audio
Версия формата : Version 1
Профиль формата : Layer 3
Режим : Joint stereo
Расширение режима : MS Stereo
Идентификатор кодека : 55
Идентификатор кодека/Подсказка : MP3
Продолжительность : 47 м.
Вид битрейта : Постоянный
Битрейт : 128 Кбит/сек
Каналы : 2 канала
Частота : 44,1 КГц
Метод сжатия : С потерями
Размер потока : 43,1 Мбайт (8%)
Выравнивание : Соединение по промежуткам
Продолжительность промежутка : 26 мс. (0,78 видеокадр)
Время предзагрузки промежутка : 26 мс.
Библиотека кодирования : LAME3.97---Общее 2 часть
Формат : AVI
Формат/Информация : Audio Video Interleave
Размер файла : 554 Мбайт
Продолжительность : 47 м.
Общий поток : 1641 Кбит/сек
Программа кодирования : Lavf51.12.1
Видео
Идентификатор : 0
Формат : MPEG-4 Visual
Профиль формата : [email protected]
Параметр BVOP формата : Нет
Параметр QPel формата : Нет
Параметр GMC формата : Без точки перехода
Параметр матрицы формата : Default (H.263)
Идентификатор кодека : DX50
Идентификатор кодека/Подсказка : DivX 5
Продолжительность : 47 м.
Битрейт : 1500 Кбит/сек
Ширина : 704 пикселя
Высота : 512 пикселей
Соотношение сторон : 1,375
Частота кадров : 29,970 кадров/сек
Цветовое пространство : YUV
Субдискретизация насыщенности : 4:2:0
Битовая глубина : 8 бит
Тип развёртки : Прогрессивная
Метод сжатия : С потерями
Бит/(Пиксели*Кадры) : 0.139
Размер потока : 506 Мбайт (91%)
Библиотека кодирования : Lavc51.40.4
Аудио
Идентификатор : 1
Формат : MPEG Audio
Версия формата : Version 1
Профиль формата : Layer 3
Режим : Joint stereo
Расширение режима : MS Stereo
Идентификатор кодека : 55
Идентификатор кодека/Подсказка : MP3
Продолжительность : 47 м.
Вид битрейта : Постоянный
Битрейт : 128 Кбит/сек
Каналы : 2 канала
Частота : 44,1 КГц
Метод сжатия : С потерями
Размер потока : 43,2 Мбайт (8%)
Выравнивание : Соединение по промежуткам
Продолжительность промежутка : 26 мс. (0,78 видеокадр)
Время предзагрузки промежутка : 26 мс.
Download / Скачать

Хотите скачать бесплатно? Зарегистрируйтесь на сайте (ссылка на регистрацию). Pirat.ca - самый быстрый торрент трекер в рунете!

Как скачивать  ·   Что такое торрент  ·   Рейтинг и ограничения



Последний раз редактировалось: UcrusPazzo (2013-04-16 22:02), всего редактировалось 1 раз

Voldemartop

Легенда

1547

Пост 16-Апр-2013 03:50 (спустя 1 год 1 месяц)

[Q] 

Благо Дарю!!!
Раздается уже год и месяц, 27 скачавших, но что-то отзывов не видно!!!

_________________


МОИ РАЗДАЧИ
[Профиль]  [ЛС] 
Показать сообщения:    
Ответить на тему

Текущее время: Сегодня 22:07

Часовой пояс: GMT + 4



Вы не можете начинать темы
Вы не можете отвечать на сообщения
Вы не можете редактировать свои сообщения
Вы не можете удалять свои сообщения
Вы не можете голосовать в опросах
Вы не можете прикреплять файлы к сообщениям
Вы не можете скачивать файлы

▼ Вниз