ML
     
  Уважаемый Гость!
Вы можете поддержать проект и зарегистрироваться у наших партнеров - онлайн-стратегия MyLands. При регистрации в игре Вы получите код, который сможете активировать после регистрации на pirat.ca и получить 1000 дублонов.

Ваш код:
a6d1ef7ff63e237add5a4c8b21d8aa937c5e9b4b
 
     

Discovery: Молниеносные катастрофы / Destroyed in seconds (Сезон: 1-2 / Серии: 1-64) (Adam Havener, Рон Питтс / Ron Pitts) [2008-2010 гг., Документальный, фильм-катастрофа, реальное ТВ, SATRip] MVO

Ответить на тему
 
Автор
Сообщение

Пост 05-Мар-2012 01:07

[Q] 

UcrusPazzo

Discovery: Молниеносные катастрофы /
Destroyed in seconds
«Without so much as a warning, life hangs in the balance. Human endeavor turns to chaos, and within seconds, nothing will ever be the same again.» -Год выпуска: 2008-2010
Мировая премьера: 21 августа 2008
Производство: США, Pilgrim Films & Television Inc.
Жанр: Документальный, фильм-катастрофа, реальное ТВ
Продолжительность серии: 64 серии ~ по 00:21:30, общее время - 23:16:50
Перевод: Профессиональный (одноголосый, закадровый)
Субтитры: отсутствуют
Режиссер: Adam Havener, Рон Питтс / Ron Pitts
Сценарий: Justin Tucker, Эрик Уэйнград
Продюсер: Сауль Фридман, Рэндолл Кирк, Tim Scowden
Композитор: Дэвид Ванакор
Монтаж: Gary Edgren, Lee Robinson, Jeremy Walters-В ролях: Рон Питтс, Кен Картер, Кенни Пауэрс-Описание: Присоединяйтесь к Рону Питу: он рассказывает о самых страшных катастрофах, которые удалось заснять на пленку. В этой передаче вы увидите взрывы, смерчи, ураганы, сошедшие с рельсов поезда, разрушенные небоскребы и многое другое. Эти невероятные съемки разрушений демонстрируют колоссальную силу стихии, которая несет за собой ужас и опустошение.-Источник/Качество: SATRip
Формат: AVI
Видео кодек: XviD
Аудио кодек: MP3
Видео: 632x408 (1.55:1), 25 fps, XviD MPEG-4 ~1618 kbps avg, 0.25 bit/pixel (38 и 43 серия)
Видео #2: 632x488 (1.30:1), 25 fps, XviD MPEG-4 ~1618 kbps avg, 0.21 bit/pixel (все серии кроме - 38 и 43)
Аудио: 48 kHz, MPEG Layer 3, 2 ch, ~128.00 kbps avg
Общее (38 и 43 серия)
Формат : AVI
Формат/Информация : Audio Video Interleave
Размер файла : 271 Мбайт
Продолжительность : 21 м.
Общий поток : 1757 Кбит/сек
Программа кодирования : VirtualDubMod 1.5.10.2 (build 2542/release)
Библиотека кодирования : VirtualDubMod build 2542/release
Видео
Идентификатор : 0
Формат : MPEG-4 Visual
Профиль формата : Advanced [email protected]
Параметр BVOP формата : 2
Параметр QPel формата : Нет
Параметр GMC формата : Без точки перехода
Параметр матрицы формата : Default (H.263)
Режим смешивания : Сжатый битовый поток
Идентификатор кодека : XVID
Идентификатор кодека/Подсказка : XviD
Продолжительность : 21 м.
Битрейт : 1619 Кбит/сек
Ширина : 632 пикселя
Высота : 408 пикселей
Соотношение сторон : 3:2
Частота кадров : 25,000 кадров/сек
Цветовое пространство : YUV
Субдискретизация насыщенности : 4:2:0
Битовая глубина : 8 бит
Тип развёртки : Прогрессивная
Метод сжатия : С потерями
Бит/(Пиксели*Кадры) : 0.251
Размер потока : 249 Мбайт (92%)
Библиотека кодирования : XviD 1.2.0.dev47 (UTC 2006-11-01)
Аудио
Идентификатор : 1
Формат : MPEG Audio
Версия формата : Version 1
Профиль формата : Layer 3
Режим : Joint stereo
Расширение режима : MS Stereo
Идентификатор кодека : 55
Идентификатор кодека/Подсказка : MP3
Продолжительность : 21 м.
Вид битрейта : Постоянный
Битрейт : 128 Кбит/сек
Каналы : 2 канала
Частота : 48,0 КГц
Метод сжатия : С потерями
Размер потока : 19,7 Мбайт (7%)
Выравнивание : Соединение по промежуткам
Продолжительность промежутка : 40 мс. (1,00 видеокадр)
Время предзагрузки промежутка : 504 мс.
Библиотека кодирования : LAME3.98 (alpha)---Общее (все серии кроме - 38 и 43)
Формат : AVI
Формат/Информация : Audio Video Interleave
Размер файла : 278 Мбайт
Продолжительность : 22 м.
Общий поток : 1757 Кбит/сек
Программа кодирования : VirtualDubMod 1.5.10.2 (build 2542/release)
Библиотека кодирования : VirtualDubMod build 2542/release
Видео
Идентификатор : 0
Формат : MPEG-4 Visual
Профиль формата : Advanced [email protected]
Параметр BVOP формата : 2
Параметр QPel формата : Нет
Параметр GMC формата : Без точки перехода
Параметр матрицы формата : Default (H.263)
Режим смешивания : Сжатый битовый поток
Идентификатор кодека : XVID
Идентификатор кодека/Подсказка : XviD
Продолжительность : 22 м.
Битрейт : 1619 Кбит/сек
Ширина : 632 пикселя
Высота : 488 пикселей
Соотношение сторон : 1,295
Частота кадров : 25,000 кадров/сек
Цветовое пространство : YUV
Субдискретизация насыщенности : 4:2:0
Битовая глубина : 8 бит
Тип развёртки : Прогрессивная
Метод сжатия : С потерями
Бит/(Пиксели*Кадры) : 0.210
Размер потока : 256 Мбайт (92%)
Библиотека кодирования : XviD 1.2.0.dev47 (UTC 2006-11-01)
Аудио
Идентификатор : 1
Формат : MPEG Audio
Версия формата : Version 1
Профиль формата : Layer 3
Режим : Joint stereo
Расширение режима : MS Stereo
Идентификатор кодека : 55
Идентификатор кодека/Подсказка : MP3
Продолжительность : 22 м.
Вид битрейта : Постоянный
Битрейт : 128 Кбит/сек
Каналы : 2 канала
Частота : 48,0 КГц
Метод сжатия : С потерями
Размер потока : 20,3 Мбайт (7%)
Выравнивание : Соединение по промежуткам
Продолжительность промежутка : 40 мс. (1,00 видеокадр)
Время предзагрузки промежутка : 504 мс.
Библиотека кодирования : LAME3.98 (alpha)
(38 и 43 серия)---(все серии кроме - 38 и 43)
Download / Скачать

Хотите скачать бесплатно? Зарегистрируйтесь на сайте (ссылка на регистрацию). Pirat.ca - самый быстрый торрент трекер в рунете!

Как скачивать  ·   Что такое торрент  ·   Рейтинг и ограничения



Последний раз редактировалось: UcrusPazzo (2013-05-19 17:16), всего редактировалось 1 раз

vadim0525

Корсар

283

Пост 05-Мар-2012 02:25 (спустя 1 час 18 минут)

[Q] 


_________________
[Профиль]  [ЛС] 

zpSaid

123

Пост 13-Апр-2012 22:04 (спустя 1 месяц 8 дней)

[Q] 

Интересная подборка!

_________________
Джавдет трус! Абдула воин!
[Профиль]  [ЛС] 

tommek

Морской Волк

231

Пост 30-Сен-2012 22:12 (спустя 5 месяцев 17 дней)

[Q] 

Поддержим раздачу, интересная весчь!

_________________
[Профиль]  [ЛС] 
Показать сообщения:    
Ответить на тему

Текущее время: Сегодня 13:31

Часовой пояс: GMT + 4



Вы не можете начинать темы
Вы не можете отвечать на сообщения
Вы не можете редактировать свои сообщения
Вы не можете удалять свои сообщения
Вы не можете голосовать в опросах
Вы не можете прикреплять файлы к сообщениям
Вы не можете скачивать файлы

▼ Вниз