ML
     
  Уважаемый Гость!
Вы можете поддержать проект и зарегистрироваться у наших партнеров - онлайн-стратегия MyLands. При регистрации в игре Вы получите код, который сможете активировать после регистрации на pirat.ca и получить 1000 дублонов.

Ваш код:
a01a592a88af5f9996a6d1baec61b18a1769954d
 
     

Идиот За Границей / An Idiot Abroad (Сезон: 01 / Серии: 1-8) [2010 г., документально-комедийная передача о путешествиях, HDRip] MVO

Ответить на тему
 
Автор
Сообщение

Пост 15-Мар-2012 00:25

[Q] 

leha1975

Гроза морей

Идиот За Границей / An Idiot Abroad
Год выпуска: 2010
Производство: Великобритания
Жанр: документально-комедийная передача о путешествиях
Продолжительность серии: 8 х 43 мин
Перевод: Профессиональный (одноголосый, закадровый) Discovery Channel
Субтитры: отсутствуют
Режисёр Люк Кэмпбелл / Luke Campbell
Эпизод 01. Китай
Эпизод 02. Индия
Эпизод 03. Иордания
Эпизод 04. Мексика
Эпизод 05. Египет
Эпизод 06. Бразилия
Эпизод 07. Перу
Эпизод 08. Карл возвращается домой
Описание: Новое шоу Рики Джервейса и Стивена Мерчанта, в котором они отправлют своего друга Карла Пилконгтона в путешествие по миру, чтобы он посмотрел Семь Чудес Света. Карл посещает Китай (Великая китайская стена), Индию (Тадж-Махал), Иорданию (Петра), Мексику (Чичен-Ица), Египет (Великие египетские пирамиды), Бразилию (Статуя Христа-Искупителя) и Перу (Мачу Пикчу), знакомится с местными жителями, познает их культуру, пробует национальную кухню. На протяжении всего шоу Карл находится вне своей привычной обстановки, постоянно жалуется и повторяет, что ненавидит эту поездку.
Сэмпл
Источник/Качество: HDRip
Формат: AVI
Видео кодек: XviD
Аудио кодек: AC3
Видео: 720x400 (1.80:1) 25 fps XviD MPEG-4 1501 kbps avg 0.20 bit/pixel
Аудио: 48 kHz AC3 Dolby Digital 2/0 (L,R) ch 192.00 kbps avg
F:\pirat.ca\ðàçäà÷è-2\Íîâàÿ ïàïêà\Ýïèçîä 01. Êèòàé.avi
General
Complete name : F:\pirat.ca\ðàçäà÷è-2\Íîâàÿ ïàïêà\Ýïèçîä 01. Êèòàé.avi
Format : AVI
Format/Info : Audio Video Interleave
File size : 529 MiB
Duration : 43mn 30s
Overall bit rate : 1 699 Kbps
Writing application : VirtualDubMod 1.5.10.2 (build 2542/release)
Writing library : VirtualDubMod build 2542/release
Video #0
ID : 0
Format : MPEG-4 Visual
Format profile : Advanced [email protected]
Format settings, BVOP : Yes
Format settings, QPel : No
Format settings, GMC : No warppoints
Format settings, Matrix : Default (MPEG)
Codec ID : XVID
Codec ID/Hint : XviD
Duration : 43mn 30s
Bit rate : 1 501 Kbps
Width : 720 pixels
Height : 400 pixels
Display aspect ratio : 16:9
Frame rate : 25.000 fps
Resolution : 8 bits
Colorimetry : 4:2:0
Scan type : Progressive
Bits/(Pixel*Frame) : 0.208
Stream size : 467 MiB (88%)
Writing library : Lavc53.11.0
Audio #1
ID : 1
Format : AC-3
Format/Info : Audio Coding 3
Format_Settings_ModeExtension : CM (complete main)
Codec ID : 2000
Duration : 43mn 29s
Bit rate mode : Constant
Bit rate : 192 Kbps
Channel(s) : 2 channels
Channel positions : Front: L R
Sampling rate : 48.0 KHz
Resolution : 16 bits
Stream size : 59.7 MiB (11%)
Alignment : Aligned on interleaves
Interleave, duration : 160 ms (4.00 video frames)
Interleave, preload duration : 640 ms
Данные для всех серий одинаковые.
Файл перезалит улучшено видео.
Download / Скачать

Хотите скачать бесплатно? Зарегистрируйтесь на сайте (ссылка на регистрацию). Pirat.ca - самый быстрый торрент трекер в рунете!

Как скачивать  ·   Что такое торрент  ·   Рейтинг и ограничения



Последний раз редактировалось: leha1975 (2012-03-15 15:15), всего редактировалось 2 раз(а)

Амангельды

35494

Пост 15-Мар-2012 16:58 (спустя 16 часов)

[Q] 

Там в тарелке чья-то челюсть? ca
Хорошо паренька послали в путешествие... an

_________________

Товарищ, верь, пройдет она,
Так называемая гласность.
И вот тогда госбезопасность
Припомнит ваши имена
Раздачи от Амангельды - ТЫНЦ
[Профиль]  [ЛС] 
Показать сообщения:    
Ответить на тему

Текущее время: Сегодня 09:47

Часовой пояс: GMT + 4



Вы не можете начинать темы
Вы не можете отвечать на сообщения
Вы не можете редактировать свои сообщения
Вы не можете удалять свои сообщения
Вы не можете голосовать в опросах
Вы не можете прикреплять файлы к сообщениям
Вы не можете скачивать файлы

▼ Вниз