ML
     
  Уважаемый Гость!
Вы можете поддержать проект и зарегистрироваться у наших партнеров - онлайн-стратегия MyLands. При регистрации в игре Вы получите код, который сможете активировать после регистрации на pirat.ca и получить 1000 дублонов.

Ваш код:
8b752b428cf60a012c159dcae592cd1392170115
 
     

Идиот За Границей / An Idiot Abroad (Сезон: 02 / Серии: 1-8) (Люк Кэмпбелл / Luke Campbell) [2011 г., документально-комедийная передача о путешествиях, HDRip] MVO

Ответить на тему
 
Автор
Сообщение

Пост 15-Мар-2012 21:02

[Q] 

leha1975

Гроза морей

Идиот За Границей / An Idiot Abroad
(Сезон: 02 / Серии: 1-8)
Год выпуска: 2011
Производство: Великобритания
Жанр: документально-комедийная передача о путешествиях
Продолжительность серии: 8 х 43 мин
Перевод: Профессиональный (одноголосый, закадровый) Discovery Channel
Субтитры: отсутствуют
Эпизод 01. Необитаемый остров
Эпизод 02. Транссибирский экспресс
Эпизод 03. Заплыв с дельфинами
Эпизод 04. Наблюдение за китами
Эпизод 05. Встреча с гориллой
Эпизод 06. Шоссе 66
Эпизод 07. Гора Фудзияма
Эпизод 08. Карл возвращается домой
Режиссер: Люк Кэмпбелл / Luke Campbell
Описание: Изображения египетских пирамид настолько приелись, что навевают скуку, а Великая китайская стена кажется такой же обыденной, как забор соседнего дома? Тогда путешествуйте вместе с британским комиком Карлом Пилкингтоном. Карл полностью меняет наше представление о зарубежных поездках: действуя по принципу «если очень хочется, то можно», он совершает странные, а порой просто сумасшедшие вещи. Какой добропорядочный турист в здравом уме и твердой памяти будет хватать бегемота за язык или исполнять дикий танец в надбедренной повязке? Но Карла обычным туристом не назовешь даже с натяжкой, так что каждая его поездка полна неожиданных, безумных и невероятно увлекательных приключений. Одно из путешествий Карла пройдет по России! Узнайте, какими глазами увидел этот чудаковатый, остроумный и неунывающий Пилкингтон нашу страну и весь остальной мир, в программе «Простак за границей»!
Сэмпл
Источник/Качество: HDRip
Формат: AVI
Видео кодек: XviD
Аудио кодек: AC3
Видео: 720x400 (1.80:1) 25 fps XviD MPEG-4 1501 kbps avg 0.20 bit/pixel
Аудио: 48 kHz AC3 Dolby Digital 2/0 (L,R) ch 192.00 kbps avg
F:\pirat.ca\ðàçäà÷è-2\Èäèîò Çà Ãðàíèöåé-2\Ýïèçîä 01. Íåîáèòàåìûé îñòðîâ.avi
General
Complete name : F:\pirat.ca\ðàçäà÷è-2\Èäèîò Çà Ãðàíèöåé-2\Ýïèçîä 01. Íåîáèòàåìûé îñòðîâ.avi
Format : AVI
Format/Info : Audio Video Interleave
File size : 531 MiB
Duration : 43mn 39s
Overall bit rate : 1 699 Kbps
Writing application : VirtualDubMod 1.5.10.2 (build 2542/release)
Writing library : VirtualDubMod build 2542/release
Video #0
ID : 0
Format : MPEG-4 Visual
Format profile : Advanced [email protected]
Format settings, BVOP : Yes
Format settings, QPel : No
Format settings, GMC : No warppoints
Format settings, Matrix : Default (MPEG)
Codec ID : XVID
Codec ID/Hint : XviD
Duration : 43mn 39s
Bit rate : 1 501 Kbps
Width : 720 pixels
Height : 400 pixels
Display aspect ratio : 16:9
Frame rate : 25.000 fps
Resolution : 8 bits
Colorimetry : 4:2:0
Scan type : Progressive
Bits/(Pixel*Frame) : 0.208
Stream size : 469 MiB (88%)
Writing library : Lavc53.11.0
Audio #1
ID : 1
Format : AC-3
Format/Info : Audio Coding 3
Format_Settings_ModeExtension : CM (complete main)
Codec ID : 2000
Duration : 43mn 39s
Bit rate mode : Constant
Bit rate : 192 Kbps
Channel(s) : 2 channels
Channel positions : Front: L R
Sampling rate : 48.0 KHz
Resolution : 16 bits
Stream size : 60.0 MiB (11%)
Alignment : Aligned on interleaves
Interleave, duration : 160 ms (4.00 video frames)
Interleave, preload duration : 640 ms
Данные для всех серий одинаковые.
Download / Скачать

Хотите скачать бесплатно? Зарегистрируйтесь на сайте (ссылка на регистрацию). Pirat.ca - самый быстрый торрент трекер в рунете!

Как скачивать  ·   Что такое торрент  ·   Рейтинг и ограничения

Показать сообщения:    
Ответить на тему

Текущее время: Сегодня 06:22

Часовой пояс: GMT + 4



Вы не можете начинать темы
Вы не можете отвечать на сообщения
Вы не можете редактировать свои сообщения
Вы не можете удалять свои сообщения
Вы не можете голосовать в опросах
Вы не можете прикреплять файлы к сообщениям
Вы не можете скачивать файлы

▼ Вниз