ML
     
  Уважаемый Гость!
Вы можете поддержать проект и зарегистрироваться у наших партнеров - онлайн-стратегия MyLands. При регистрации в игре Вы получите код, который сможете активировать после регистрации на pirat.ca и получить 1000 дублонов.

Ваш код:
a6d1ef7ff63e237add5a4c8b21d8aa937c5e9b4b
 
     

Современный снайпер / Modern Sniper (Сезон: 1 / Серии: 1-4) (Eric Katzenberg, Nathan Daniel, Damian Smith) [2010 г., Военный, документальный, TVRip] MVO

Ответить на тему
 
Автор
Сообщение

Пост 17-Мар-2012 19:06

[Q] 

UcrusPazzo

Современный снайпер / Modern Sniper -Год выпуска: 2010
Мировая премьера: 3 January 2010 (USA)
Производство: США, Legion Productions, Discovery Channel
Жанр: Военный, документальный
Продолжительность серии: 4 серии по 00:43:50, общее время - 02:55:16
Перевод: Профессиональный (одноголосый, закадровый)
Субтитры: отсутствуют
Режиссер: Eric Katzenberg, Nathan Daniel, Damian Smith
Рассказчик: Bob Souer
Описание: Мало какое оружие XXI века сможет сравниться по своей эффективности со снайпером. Хороший снайпер способен в одиночку решить исход сражения. Снайперы из самых разных, сухопутных и морских подразделений, доказывают свою эффективность в настоящих военных конфликтах. В этой программе вы узнаете роль снайпера в современном бое, кое-что о современных технологиях и об эффективности этих столь значимых воинов. Эти профессионалы отлично натренированы, невероятно адаптируемы и хладнокровны. Это -- современный снайперы.
Снайпер Армии США (US Army)
Современный снайпер -- плод 200-летней эволюции оружия. В наши дни эта специальность претерпевает значительные изменения. Пехотные снайперы сталкиваются с невероятно технологически сложными боевыми ситуациями, требующими постоянного совершенствования оружия, тактики и техники. Снайперы должны быть эффективны в любой среде. Снайперские отряды численностью от 2 до 8 человек обеспечивают свое командования важнейшими разведданными и хирургически точно ликвидируют противника. Залог превосходства в современной войне -- это гибкость. В Армии США применяется сложнейшая программа тренировки снайперов, обучающих быстро отрабатывать новую тактику подавления противника.-Снайпер Корпуса морской пехоты США (US Marines)
В заключительном тесте снайпер - морпех отрабатывает все элементы, которые изучал. Учения снайперов - морпехов одни из самых трудных в Вооруженных Силах США. Весь курс проходит в условиях, приближенных к боевым. Именно курс тренировок, выработанный годами, превращает снайпера - морпеха в самого опасного участника сражения.-Снайпер Береговой охраны США (US Сoast Guard)
Уже 225 лет Береговая охрана США патрулирует границы страны. Этот мобильный род войск Вооруженных Сил США участвует в спасательных операциях, занимается охраной правопорядка и защищает границы Родины, хотя их численность не более полицейского департамента НЬю-Йорка. Недавно Береговой охране пришлось изменить свою тактику в борьбе с наркотиками, это принесло невероятный успех. Они стали использовать специальный тактический вертолетный взвод -- HITRON.-Курс продвинутого снайпера.
"Продвинутый снайпер" -- это отряд не из 2-х, как ранее, а из 6-ти человек, способных выполнять чрезвычайно сложные задания. Помимо увеличенной численности, отряд продвинутых снайперов от обычного отличает умение солдат маскироваться, возможность вызывать огневую поддержку и ясно мыслить прямо на ходу. Спрос на снайперов сильно вырос, поэтому множество бойцов из сухопутных войск, Корпуса морской пехоты, флота и даже полиции поступили на 2-х месячные курсы, обучающие умениям и прививающие взрывную мощь продвинутых снайперских отрядов.
Источник/Качество: TVRip
Формат: AVI
Видео кодек: XviD
Аудио кодек: MP3
Видео: 704x528 (1.33:1), 25 fps, XviD MPEG-4 ~1996 kbps avg, 0.21 bit/pixel (Все серии одинаковы по данным)
Аудио: 48 kHz, MPEG Layer 3, 2 ch, ~128.00 kbps avg
Общее
Формат : AVI
Формат/Информация : Audio Video Interleave
Размер файла : 668 Мбайт
Продолжительность : 43 м.
Общий поток : 2132 Кбит/сек
Видео
Идентификатор : 0
Формат : MPEG-4 Visual
Профиль формата : [email protected]
Параметр BVOP формата : Нет
Параметр QPel формата : Нет
Параметр GMC формата : Без точки перехода
Параметр матрицы формата : Default (H.263)
Идентификатор кодека : XVID
Идентификатор кодека/Подсказка : XviD
Продолжительность : 43 м.
Битрейт : 2000 Кбит/сек
Ширина : 704 пикселя
Высота : 528 пикселей
Соотношение сторон : 4:3
Частота кадров : 25,000 кадров/сек
Цветовое пространство : YUV
Субдискретизация насыщенности : 4:2:0
Битовая глубина : 8 бит
Тип развёртки : Прогрессивная
Метод сжатия : С потерями
Бит/(Пиксели*Кадры) : 0.215
Размер потока : 626 Мбайт (94%)
Библиотека кодирования : XviD 64
Аудио
Идентификатор : 1
Формат : MPEG Audio
Версия формата : Version 1
Профиль формата : Layer 3
Идентификатор кодека : 55
Идентификатор кодека/Подсказка : MP3
Продолжительность : 43 м.
Вид битрейта : Постоянный
Битрейт : 128 Кбит/сек
Каналы : 2 канала
Частота : 48,0 КГц
Метод сжатия : С потерями
Размер потока : 40,1 Мбайт (6%)
Выравнивание : Разделение по промежуткам
Продолжительность промежутка : 500 мс. (12,50 видеокадров)
Время предзагрузки промежутка : 750 мс.
Download / Скачать

Хотите скачать бесплатно? Зарегистрируйтесь на сайте (ссылка на регистрацию). Pirat.ca - самый быстрый торрент трекер в рунете!

Как скачивать  ·   Что такое торрент  ·   Рейтинг и ограничения



Последний раз редактировалось: UcrusPazzo (2013-05-19 17:10), всего редактировалось 2 раз(а)

goxakrauter

4538

Пост 17-Мар-2012 19:27 (спустя 20 минут)

[Q] 

[Профиль]  [ЛС] 

me14

999

Пост 17-Мар-2012 21:12 (спустя 1 час 45 минут)

[Q] 


_________________
Если вы все еще не забанены - это не ваша заслуга, а модераторская недоработка.
[Профиль]  [ЛС] 

vadim0525

Корсар

283

Пост 17-Мар-2012 23:18 (спустя 2 часа 5 минут)

[Q] 


_________________
[Профиль]  [ЛС] 

UcrusPazzo ®

7669

Пост 18-Мар-2012 00:59 (спустя 1 час 41 минута)

[Q] 

Кому интересна эта тематика вот еще пожалуйста - На пределе / Surviving the Cut (Сезон: 1-2 / Серии: 1-12) (Бобби Уильямс / Bobby Williams) [2010-2011 гг., Документальный, военный, риальное ТВ, SATRip] MVO

_________________
[Профиль]  [ЛС] 

Krukov_Aleksey

Корсар

Пост 27-Май-2012 07:42 (спустя 2 месяца 9 дней)

[Q] 

всем спасибо
Сам снайпер и люблю смотреть такое
[Профиль]  [ЛС] 

sorrr

Корсар

316

Пост 08-Июн-2012 13:45 (спустя 12 дней)

[Q] 

интересное видео, спс!

_________________
Подпись отключена за нарушение правил форума
[Профиль]  [ЛС] 
Показать сообщения:    
Ответить на тему

Текущее время: Сегодня 13:36

Часовой пояс: GMT + 4



Вы не можете начинать темы
Вы не можете отвечать на сообщения
Вы не можете редактировать свои сообщения
Вы не можете удалять свои сообщения
Вы не можете голосовать в опросах
Вы не можете прикреплять файлы к сообщениям
Вы не можете скачивать файлы

▼ Вниз