ML
     
  Уважаемый Гость!
Вы можете поддержать проект и зарегистрироваться у наших партнеров - онлайн-стратегия MyLands. При регистрации в игре Вы получите код, который сможете активировать после регистрации на pirat.ca и получить 1000 дублонов.

Ваш код:
f612af22ea70acf5cbe90707ac5a076d215f8f7f
 
     

iГений: Как Стив Джобс изменил мир / iGenius: How Steve Jobs Changed the World (Discovery Channel) [2011 г., Документальный, научно-популярный, DVB]

Ответить на тему
 
Автор
Сообщение

Пост 31-Окт-2011 04:35

[Q] 

zyyx

iГений: Как Стив Джобс изменил мир / iGenius: How Steve Jobs Changed the World
Год выпуска: 2011
Страна: США
Жанр: Документальный, научно-популярный
Продолжительность: 00:42:32
Перевод: Профессиональный (двухголосый)
Режиссер: Discovery Channel
Описание: Ведущими передачи станут Адам Сэвидж и Джейми Хайнеман, хорошо знакомые зрителям Discovery Channel по передаче «Разрушители легенд». Они рассказывают малоизвестные факты, связанные с личностью и идеями Стива Джобса, беседуют с людьми, которые знали его лично. Интервью с Ли Фельзенштейном, бывшим членом компьютерного клуба Homebrew. В этот клуб IT-энтузиастов также входили Стив Джобс и Стив Возняк, впоследствии создавшие компанию Apple Computers. Кроме того, Адам и Джейми встретятся с Дэниэлом Коттке, другом Стива Джобса, поехавшим вместе с ним в 1975 году в Индию в поисках духовного просветления.
В программе появятся известные ученые, включая знаменитого физика-теоретика Митио Каку, а также журналисты, музыканты, режиссеры, которые во многом обязаны своим успехом Стиву Джобсу и его инновациям. О том, какое значение для их творчества имели идеи Стива, расскажут Стиви Уандер, Пит Вентц и другие знаменитости.
«Кто-то однажды сказал, что идти по проторенному пути – это разумно, и поэтому прогресс всегда вершат неразумные люди, - говорит Адам Сэвидж. – Стив Джобс был именно таким неразумным человеком. Он не просто предлагал людям то, чего они ждали, он открывал новые пути и способы мышления, создавая иную цифровую реальность, которая объединяла творчество, музыку, общение, медиа, искусство. Прямо или косвенно он изменил каждого из нас».
Качество: DVB
Формат: MPEG
Видео кодек: MPEG2
Аудио кодек: MPEG Audio
Видео: 720x576 (4:3) 25.00fps 2380 Kbps 0.230 bit/pixel
Аудио: MPEG Audio 48000Hz stereo 192kbps
Общее
Полное имя : D:\pirat.ca\iГений.mpg
Формат : MPEG-PS
Размер файла : 824 Мбайт
Продолжительность : 43 м.
Режим общего битрейта : Переменный
Общий поток : 2624 Кбит/сек
Библиотека кодирования : (c) 1998-2011 Womble Multimedia, Inc. / MPEG Video Wizard DVD 5.0.1.100 (03/2011) / Sep 8 2011
Видео
Идентификатор : 224 (0xE0)
Формат : MPEG Video
Версия формата : Version 2
Профиль формата : [email protected]
Параметр BVOP формата : Да
Параметр матрицы формата : Выборочная
Параметр GOP формата : M=3, N=21
Продолжительность : 43 м.
Вид битрейта : Переменный
Битрейт : 2380 Кбит/сек
Максимальный битрейт : 4500 Кбит/сек
Ширина : 720 пикселей
Высота : 576 пикселей
Соотношение сторон : 4:3
Частота кадров : 25,000 кадров/сек
Стандарт вещания : PAL
Цветовое пространство : YUV
Субдискретизация насыщенности : 4:2:0
Битовая глубина : 8 бит
Тип развёртки : Чересстрочная
Порядок развёртки : Верхнее поле первое
Метод сжатия : С потерями
Бит/(Пиксели*Кадры) : 0.230
Размер потока : 747 Мбайт (91%)
Библиотека кодирования : (c) 1998-2011 Womble Multimedia, Inc. / MPEG Video Wizard DVD 5.0.1.100 (03/2011) / Sep 8 2011
Аудио
Идентификатор : 192 (0xC0)
Формат : MPEG Audio
Версия формата : Version 1
Профиль формата : Layer 2
Продолжительность : 43 м.
Вид битрейта : Постоянный
Битрейт : 192 Кбит/сек
Каналы : 2 канала
Частота : 48,0 КГц
Метод сжатия : С потерями
Задержка видео : -80 мс.
Размер потока : 60,3 Мбайт (7%)
Меню





Download / Скачать

Хотите скачать бесплатно? Зарегистрируйтесь на сайте (ссылка на регистрацию). Pirat.ca - самый быстрый торрент трекер в рунете!

Как скачивать  ·   Что такое торрент  ·   Рейтинг и ограничения



Последний раз редактировалось: zyyx (2011-11-06 17:35), всего редактировалось 3 раз(а)

euphOria

Штурман

94

Пост 31-Окт-2011 05:59 (спустя 1 час 23 минуты)

[Q] 

Оу, спасибо! Только вот, когда раздавать начнем? )

_________________
[Профиль]  [ЛС] 

Krukov_Aleksey

Корсар

Пост 01-Ноя-2011 13:17 (спустя 1 день 7 часов)

[Q] 

Всем привет, я рекомендую просмотреть этого гения
[Профиль]  [ЛС] 
Показать сообщения:    
Ответить на тему

Текущее время: Сегодня 00:24

Часовой пояс: GMT + 4



Вы не можете начинать темы
Вы не можете отвечать на сообщения
Вы не можете редактировать свои сообщения
Вы не можете удалять свои сообщения
Вы не можете голосовать в опросах
Вы не можете прикреплять файлы к сообщениям
Вы не можете скачивать файлы

▼ Вниз