ML
     
  Уважаемый Гость!
Вы можете поддержать проект и зарегистрироваться у наших партнеров - онлайн-стратегия MyLands. При регистрации в игре Вы получите код, который сможете активировать после регистрации на pirat.ca и получить 1000 дублонов.

Ваш код:
f612af22ea70acf5cbe90707ac5a076d215f8f7f
 
     

Discovery: 10 самых опасных мест на планете / Top Ten Places to Brave Mother Nature (Ден Фокс) [2008 г., Документальный, TVRip]

Ответить на тему
 
Автор
Сообщение

Пост 27-Окт-2011 23:48

[Q] 

UcrusPazzo

Discovery: 10 самых опасных мест на планете / Top Ten Places to Brave Mother Nature -Год выпуска: 2008
Страна: США, Colorado Production Group, Travel Channel, L.L.C.
Жанр: Документальный
Продолжительность: 00:49:32
Перевод: Профессиональный (одноголосый)-Режиссер: Ден Фокс-Описание: Прeдстaвьте, чтo вы стoите нa краю огнeнного вулканa! Мчитесь навстрeчу тoрнaдо! Летите на самолeте в сeрдце колоссальной бури! Узнайте, где бушует безжалостная стихия.
Поймайте сокрушительную волну у берегов Сан-Франциско - "стену кошмара", которая яростно треплет серфингистов. Если Вы - храбрец, Вы смело встанете на пути громоподобной лавины вместе со знаменитым фотографом, который создает поразительные кадры стремительных снежных потоков. И только побывав с бригадой лесных пожарных в огненной зоне смертельного риска, Вы поймете, что пережили самые опасные минуты в своей жизни!-Качество: TVRip
Формат: AVI
Видео кодек: XviD
Аудио кодек: AC3
Видео: 720x544 (1.32:1), 25 fps, DivX Codec 6.7 ~1778 kbps avg, 0.18 bit/pixel
Аудио: 48 kHz, AC3 Dolby Digital, 2/0 (L,R) ch, ~192 kbps
Субтитры: нет-
Общее
Формат : AVI
Формат/Информация : Audio Video Interleave
Размер файла : 700 Мбайт
Продолжительность : 49 м.
Общий поток : 1977 Кбит/сек
Программа кодирования : VirtualDubMod 1.5.4.1 (build 2178/release)
Библиотека кодирования : VirtualDubMod build 2178/release
Видео
Идентификатор : 0
Формат : MPEG-4 Visual
Параметр BVOP формата : 1
Параметр QPel формата : Нет
Параметр GMC формата : Без точки перехода
Параметр матрицы формата : Default (H.263)
Режим смешивания : Сжатый битовый поток
Идентификатор кодека : DX50
Идентификатор кодека/Подсказка : DivX 5
Продолжительность : 49 м.
Битрейт : 1778 Кбит/сек
Ширина : 720 пикселей
Высота : 544 пикселя
Соотношение сторон : 4:3
Частота кадров : 25,000 кадров/сек
Цветовое пространство : YUV
Субдискретизация насыщенности : 4:2:0
Битовая глубина : 8 бит
Тип развёртки : Прогрессивная
Метод сжатия : С потерями
Бит/(Пиксели*Кадры) : 0.182
Размер потока : 630 Мбайт (90%)
Библиотека кодирования : DivX 6.7.0 (UTC 2007-09-20)
Аудио
Идентификатор : 1
Формат : AC-3
Формат/Информация : Audio Coding 3
Расширение режима : CM (complete main)
Идентификатор кодека : 2000
Продолжительность : 49 м.
Вид битрейта : Постоянный
Битрейт : 192 Кбит/сек
Каналы : 2 канала
Расположение каналов : Front: L R
Частота : 48,0 КГц
Битовая глубина : 16 бит
Метод сжатия : С потерями
Размер потока : 68,0 Мбайт (10%)
Выравнивание : Разделение по промежуткам
Продолжительность промежутка : 96 мс. (2,40 видеокадра)
Время предзагрузки промежутка : 96 мс.
Язык : Russian
Download / Скачать

Хотите скачать бесплатно? Зарегистрируйтесь на сайте (ссылка на регистрацию). Pirat.ca - самый быстрый торрент трекер в рунете!

Как скачивать  ·   Что такое торрент  ·   Рейтинг и ограничения



Последний раз редактировалось: UcrusPazzo (2013-05-12 14:31), всего редактировалось 4 раз(а)

rotex56

Штурман

18

Пост 01-Ноя-2011 12:13 (спустя 4 дня)

[Q] 

Почему режиссер только на русском?
[Профиль]  [ЛС] 

Воффка

Морской Волк

Пост 03-Ноя-2011 21:59 (спустя 2 дня 9 часов)

[Q] 

спасибо! Поддержу

_________________
-= Водка, шлюхи, Death Metal!!!=-
[Профиль]  [ЛС] 

vadim0525

Корсар

283

Пост 15-Фев-2012 00:32 (спустя 3 месяца 11 дней)

[Q] 


_________________
[Профиль]  [ЛС] 

petlura-79

Лоцман

Пост 05-Авг-2012 22:11 (спустя 5 месяцев 19 дней)

[Q] 

Спасибо.[img][/img]
[Профиль]  [ЛС] 

AlexFBI

Лоцман

Пост 15-Дек-2012 00:20 (спустя 4 месяца 9 дней)

[Q] 

Спасибо за раздачу!
[Профиль]  [ЛС] 

SyXapuK

Штурман

Пост 15-Дек-2012 17:16 (спустя 16 часов)

[Q] 

спс
[Профиль]  [ЛС] 

Vanchug

Морской Волк

Пост 05-Янв-2013 17:58 (спустя 21 день)

[Q] 

[Профиль]  [ЛС] 

Aviraelis

Морской Волк

24

Пост 07-Янв-2013 23:36 (спустя 2 дня 5 часов)

[Q] 

Спасибо!
[Профиль]  [ЛС] 

Klex

Морской Волк

Пост 29-Янв-2013 17:44 (спустя 21 день)

[Q] 

ниче так
[Профиль]  [ЛС] 
Показать сообщения:    
Ответить на тему

Текущее время: Сегодня 00:23

Часовой пояс: GMT + 4



Вы не можете начинать темы
Вы не можете отвечать на сообщения
Вы не можете редактировать свои сообщения
Вы не можете удалять свои сообщения
Вы не можете голосовать в опросах
Вы не можете прикреплять файлы к сообщениям
Вы не можете скачивать файлы

▼ Вниз