ML
     
  Уважаемый Гость!
Вы можете поддержать проект и зарегистрироваться у наших партнеров - онлайн-стратегия MyLands. При регистрации в игре Вы получите код, который сможете активировать после регистрации на pirat.ca и получить 1000 дублонов.

Ваш код:
47bfc18b89c74e4ae0d974e9b6943639e2bff08e
 
     

Настоящий код ДаВинчи / Real DaVince Code (Kashaf Chaudhry) [2006 г., Документальный, DVDRip] (Dub)

Ответить на тему
 
Автор
Сообщение

Пост 01-Ноя-2011 19:23

[Q] 

Степаныч

Настоящий код ДаВинчи
Real DaVince Code
Год выпуска: 2006
Производство: США
Жанр: Документальный
Продолжительность: 00:44:33
Перевод: Профессиональный (полное дублирование)
Режиссер: Kashaf Chaudhry
В ролях: Тони Робинсон Майкл БэйджентРичард Барбер Томас Бридвелл Энн Грэхэм Брок Дэн Браун Жан-Люк Шомель Philippe de Cherisey Arnaud de Sède Gérard de Sède
Описание: Тони Робинсон отправляется на поиски фактов о чаше Грааля и прорывается сквозь плотную завесу тайны, которая окружает этот вопрос. Может быть, Дена Брауна обманули, а один из самых привлекательных элементов современных поисков чаши Грааля не что иное, как хорошо придуманная шутка? Источник/Качество: DVDRip
Формат: AVI
Видео кодек: DivX
Аудио кодек: MP3
Видео: MPEG4, DivX 5, 720x576 (5/4), 25.000 fps, 2 102 Kbps (0.203 bit/pixel)
Аудио: MP3, 48.0 KHz, 1 ch, 192 Kbps, CBR
Формат : AVI
Формат/Информация : Audio Video Interleave
Размер файла : 734 Мбайт
Продолжительность : 44 м.
Общий поток : 2303 Кбит/сек
Программа кодирования : VirtualDubMod 1.5.10.1 (build 2366/release)
Библиотека кодирования : VirtualDubMod build 2366/release
Видео
Идентификатор : 0
Формат : MPEG-4 Visual
Параметр BVOP формата : 1
Параметр QPel формата : Нет
Параметр GMC формата : Без точки перехода
Параметр матрицы формата : Default (H.263)
Режим смешивания : Сжатый битовый поток
Идентификатор кодека : DX50
Идентификатор кодека/Подсказка : DivX 5
Продолжительность : 44 м.
Битрейт : 2102 Кбит/сек
Ширина : 720 пикс.
Высота : 576 пикс.
Соотношение сторон : 5:4
Частота кадров : 25,000 кадр/сек
Стандарт вещания : PAL
Цветовое пространство : YUV
Подвыборка цветности : 4:2:0
Битовая глубина : 8 бит
Тип развёртки : Прогрессивная
Метод сжатия : С потерями
Бит/(Пиксели*Кадры) : 0.203
Размер потока : 670 Мбайт (91%)
Библиотека кодирования : DivX 5.1.1 (Maupiti) (UTC 2003-11-19)
Аудио
Идентификатор : 1
Формат : MPEG Audio
Версия формата : Version 1
Профиль формата : Layer 3
Идентификатор кодека : 55
Идентификатор кодека/Подсказка : MP3
Продолжительность : 44 м.
Вид битрейта : Постоянный
Битрейт : 192 Кбит/сек
Канал(ы) : 1 канал
Частота : 48,0 КГц
Метод сжатия : С потерями
Размер потока : 61,2 Мбайт (8%)
Выравнивание : Разделение по промежуткам
Продолжительность промежутка : 40 мс. (1,00 видеокадр)
Время предзагрузки промежутка : 500 ms



Download / Скачать

Хотите скачать бесплатно? Зарегистрируйтесь на сайте (ссылка на регистрацию). Pirat.ca - самый быстрый торрент трекер в рунете!

Как скачивать  ·   Что такое торрент  ·   Рейтинг и ограничения



Последний раз редактировалось: Степаныч (2011-11-07 09:46), всего редактировалось 1 раз

Linnan

2628

Пост 09-Ноя-2011 16:41 (спустя 7 дней)

[Q] 

Степаныч,
вообще-то тут перевод профессиональный одноголосый и качество тврип - не мешало бы поправить информацию)

_________________

По ночам не раздаю
[Профиль]  [ЛС] 

AlexFBI

Лоцман

Пост 15-Дек-2012 00:53 (спустя 1 год 1 месяц)

[Q] 

Спасибо за раздачу.
[Профиль]  [ЛС] 
Показать сообщения:    
Ответить на тему

Текущее время: Сегодня 07:03

Часовой пояс: GMT + 4



Вы не можете начинать темы
Вы не можете отвечать на сообщения
Вы не можете редактировать свои сообщения
Вы не можете удалять свои сообщения
Вы не можете голосовать в опросах
Вы не можете прикреплять файлы к сообщениям
Вы не можете скачивать файлы

▼ Вниз