ML
     
  Уважаемый Гость!
Вы можете поддержать проект и зарегистрироваться у наших партнеров - онлайн-стратегия MyLands. При регистрации в игре Вы получите код, который сможете активировать после регистрации на pirat.ca и получить 1000 дублонов.

Ваш код:
0ea1bf889af42fca5f67d0a391efb3400850ad7c
 
     

Wikileaks: война, ложь и видеокассета / WikiLeaks: War, lies and Videotape (Поль Морейра, Люк Эрманнм / Paul Moreira, Luc Hermann) [2011 г.] (Документальный) [SATRip]

Ответить на тему
 
Автор
Сообщение

Пост 27-Окт-2011 20:37

[Q] 

Призрак

Корсар

Wikileaks: война, ложь и видеокассета / WikiLeaks: War, lies and Videotape
Год выпуска: 2011
Мировая премьера: 2011 (USA)
Производство: Discovery channel, Франция
Жанр: Документальный
Продолжительность: 00:43:56
Перевод: Профессиональный (одноголосый, закадровый)
Режиссер: Поль Морейра, Люк Эрманнм / Paul Moreira, Luc Hermann
В ролях: Джулиан Ассанж
Описание: Сегодня, когда весь мир говорит о WikiLeaks, а имя Джулиана Ассанжа постоянно мелькает в новостных лентах, Discovery Channel снял документальный фильм об одном из главных скандалов современной эпохи. 27 февраля в 21:00 состоится премьера уникальной программы «WikiLeaks: война, ложь и видеокассета». Она заставит вас по-новому взглянуть на проблему утечки информации, а также познакомит весь мир с неоднозначной, но, бесспорно, яркой личностью, человеком, которого одни объявляют преступником и требуют для него смертной казни, а другие выдвигают на Нобелевскую премию мира.
Режиссеры фильма, известные журналисты Поль Морейра и Люк Эрманн, побывали в Лондоне, Вашингтоне, Рейкьявике и Париже. Они встретились с теми, кто работает над WikiLeaks, кто бросает вызов правилам строгой секретности, кто борется за прозрачность и открытость информации и выступает против замалчивания нелицеприятных фактов военными и политиками. Эти люди не всегда действуют законно, устраивая хакерские атаки и применяя другие методы, которые могут привести за решетку. Вы узнаете всю историю WikiLeaks из первых рук и проследите за развитием этого скандального ресурса с момента его запуска до сегодняшних дней, когда WikiLeaks в ответ на закрытие возродился в сотнях «зеркал», доступных по всему миру.
IMDB, КиноПоиск
Источник/Качество: SATRip
Формат: AVI
Видео кодек: DivX
Аудио кодек: MP3
Видео: 704x400 (1.76:1), 25 fps, DivX Codec 6.8.5/6.9.1 ~1400 kbps avg, 0.20 bit/pixel
Аудио: 48 kHz, MPEG Layer 3, 2 ch, ~128.00 kbps avg
Общее
Формат : AVI
Формат/Информация : Audio Video Interleave
Размер файла : 484 Мбайт
Продолжительность : 43 м.
Общий поток : 1539 Кбит/сек
Программа кодирования : VirtualDubMod 1.5.10.2 (build 2540/release)
Библиотека кодирования : VirtualDub build 32706/release
Видео
Идентификатор : 0
Формат : MPEG-4 Visual
Параметр BVOP формата : 1
Параметр QPel формата : Нет
Параметр GMC формата : Без точки перехода
Параметр матрицы формата : Default (H.263)
Режим смешивания : Сжатый битовый поток
Идентификатор кодека : DX50
Идентификатор кодека/Подсказка : DivX 5
Продолжительность : 43 м.
Битрейт : 1401 Кбит/сек
Ширина : 704 пикселя
Высота : 400 пикселей
Соотношение сторон : 16:9
Частота кадров : 25,000 кадров/сек
Цветовое пространство : YUV
Субдискретизация насыщенности : 4:2:0
Битовая глубина : 8 бит
Тип развёртки : Прогрессивная
Метод сжатия : С потерями
Бит/(Пиксели*Кадры) : 0.199
Размер потока : 440 Мбайт (91%)
Библиотека кодирования : DivX 6.8.5 (UTC 2009-08-20)
Аудио
Идентификатор : 1
Формат : MPEG Audio
Версия формата : Version 1
Профиль формата : Layer 3
Режим : Joint stereo
Идентификатор кодека : 55
Идентификатор кодека/Подсказка : MP3
Продолжительность : 43 м.
Вид битрейта : Постоянный
Битрейт : 128 Кбит/сек
Каналы : 2 канала
Частота : 48,0 КГц
Метод сжатия : С потерями
Размер потока : 40,2 Мбайт (8%)
Выравнивание : Соединение по промежуткам
Продолжительность промежутка : 40 мс. (1,00 видеокадр)
Время предзагрузки промежутка : 504 мс.
Download / Скачать

Хотите скачать бесплатно? Зарегистрируйтесь на сайте (ссылка на регистрацию). Pirat.ca - самый быстрый торрент трекер в рунете!

Как скачивать  ·   Что такое торрент  ·   Рейтинг и ограничения



Последний раз редактировалось: Призрак (2011-10-30 15:22), всего редактировалось 1 раз

Krukov_Aleksey

Корсар

Пост 01-Ноя-2011 12:52 (спустя 4 дня)

[Q] 

Ничего нового не узнал
[Профиль]  [ЛС] 

Mad-santA

Лоцман

Пост 25-Янв-2012 02:38 (спустя 2 месяца 23 дня)

[Q] 

новое будет во второй части. (специально для Вас) ;)
[Профиль]  [ЛС] 

ГГБ

Корсар

Пост 18-Фев-2012 20:51 (спустя 24 дня)

[Q] 


_________________
Если долго всматриваться в бездну-бездна начнёт всматриваться в тебя.
Фридрих Ницше.
[Профиль]  [ЛС] 

van4ela

Штурман

Пост 08-Дек-2013 12:01 (спустя 1 год 9 месяцев)

[Q] 

а раздвать то кто будет? оО
[Профиль]  [ЛС] 

terrex

Пост 20-Июл-2014 09:20 (спустя 7 месяцев 11 дней)

[Q] 

Эй, вернитесь на раздачу... где раздающий?
[Профиль]  [ЛС] 
Показать сообщения:    
Ответить на тему

Текущее время: Сегодня 00:39

Часовой пояс: GMT + 4



Вы не можете начинать темы
Вы не можете отвечать на сообщения
Вы не можете редактировать свои сообщения
Вы не можете удалять свои сообщения
Вы не можете голосовать в опросах
Вы не можете прикреплять файлы к сообщениям
Вы не можете скачивать файлы

▼ Вниз