ML
     
  Уважаемый Гость!
Вы можете поддержать проект и зарегистрироваться у наших партнеров - онлайн-стратегия MyLands. При регистрации в игре Вы получите код, который сможете активировать после регистрации на pirat.ca и получить 1000 дублонов.

Ваш код:
0fcd44bd35319f69313aa6e53b31c51cbff1c942
 
     

Discovery: Как фантастика изменила мир с Уильямом Шатнером / How Techies Changed The World. William Shatner (Джулиан Джонс / Julian Jones) [2005 г., Документальный, TVRip] (VO)

Ответить на тему
 
Автор
Сообщение

Пост 09-Ноя-2011 13:22

[Q] 

Linnan

Discovery: Как фантастика изменила мир с Уильямом Шатнером
Год выпуска: 2005
Производство: США
Жанр: Документальный
Продолжительность: 01:31:34
Перевод: Профессиональный (одноголосый)
Режиссер: Джулиан Джонс / Julian Jones
В ролях: Уильям Шатнер
Описание: Ведущий передачи - исполнитель главной роли , капитана Кирка, Уильям Шатнер из полюбившегося практически всем первого фантастического сериала "Star Trek" рассказывает, как придуманные для сериала техника и технологии воплотились в нашем настоящем мире и как еще более фантастические идеи не достигнуты, но ученые идут к их разгадкам.
Источник/Качество: TVRip
Формат: MKV
Видео кодек: DivX
Аудио кодек: MP3
Видео: 768x576 4:3, 981 kbps, 25 fps
Аудио: 73,1 kbps, 1 ch, 32,0 kHz
Общее
Уникальный идентификатор : 176862633912693709249745936374796386237 (0x850E8117CF6BDE41B541DA113B2BFFBD)
Полное имя : F:\Загрузки торрента\How Techies Changed The World. William Shatner.mkv
Формат : Matroska
Версия формата : Version 2
Размер файла : 705 Мбайт
Продолжительность : 1 ч. 31 м.
Режим общего битрейта : Переменный
Общий поток : 1076 Кбит/сек
Дата кодирования : UTC 2011-11-09 07:59:24
Программа кодирования : mkvmerge v2.8.0 ('The Tree') built on May 9 2009 18:02:06
Библиотека кодирования : libebml v0.7.7 + libmatroska v0.8.1
Видео
Идентификатор : 1
Формат : MPEG-4 Visual
Параметр BVOP формата : Да
Параметр QPel формата : Нет
Параметр GMC формата : Без точки перехода
Параметр матрицы формата : Default (H.263)
Идентификатор кодека : DX50
Идентификатор кодека/Подсказка : DivX 5
Продолжительность : 1 ч. 31 м.
Битрейт : 981 Кбит/сек
Ширина : 768 пикселей
Высота : 576 пикселей
Соотношение сторон : 4:3
Частота кадров : 25,000 кадров/сек
Цветовое пространство : YUV
Субдискретизация насыщенности : 4:2:0
Битовая глубина : 8 бит
Тип развёртки : Прогрессивная
Метод сжатия : С потерями
Бит/(Пиксели*Кадры) : 0.089
Размер потока : 643 Мбайт (91%)
Библиотека кодирования : DivX 5.2.1 (DrDivX 106) (UTC 2004-09-08)
Аудио
Идентификатор : 2
Формат : MPEG Audio
Версия формата : Version 1
Профиль формата : Layer 3
Идентификатор кодека : A_MPEG/L3
Идентификатор кодека/Подсказка : MP3
Продолжительность : 1 ч. 31 м.
Вид битрейта : Переменный
Битрейт : 73,1 Кбит/сек
Минимальный битрейт : 64,0 Кбит/сек
Каналы : 1 канал
Частота : 32,0 КГц
Метод сжатия : С потерями
Размер потока : 47,9 Мбайт (7%)
Библиотека кодирования : LAME3.92
Настройки программы : -m m -V 2 -q 2 -lowpass 15.1 --vbr-old -b 64


Download / Скачать

Хотите скачать бесплатно? Зарегистрируйтесь на сайте (ссылка на регистрацию). Pirat.ca - самый быстрый торрент трекер в рунете!

Как скачивать  ·   Что такое торрент  ·   Рейтинг и ограничения

Показать сообщения:    
Ответить на тему

Текущее время: Сегодня 02:14

Часовой пояс: GMT + 4



Вы не можете начинать темы
Вы не можете отвечать на сообщения
Вы не можете редактировать свои сообщения
Вы не можете удалять свои сообщения
Вы не можете голосовать в опросах
Вы не можете прикреплять файлы к сообщениям
Вы не можете скачивать файлы

▼ Вниз