ML
     
  Уважаемый Гость!
Вы можете поддержать проект и зарегистрироваться у наших партнеров - онлайн-стратегия MyLands. При регистрации в игре Вы получите код, который сможете активировать после регистрации на pirat.ca и получить 1000 дублонов.

Ваш код:
6f9ab67d502902cc72a06c406977ddb589b7f39d
 
     

Через червоточину с Морганом Фрименом / Through the Wormhole with Morgan Freeman (Сезон 2) [2011 г., Документальный, TVRip] (VO)

Ответить на тему
 
Автор
Сообщение

Пост 09-Ноя-2011 18:23

[Q] 

Fennec

Лоцман

Через червоточину с Морганом Фрименом / Through the Wormhole with Morgan Freeman
Год выпуска: 2011
Мировая премьера: 8 июня 2011 - 3 августа 2011
Российская премьера: 8 июня 2011 - 3 августа 2011
Дата выхода DVD: 22 ноября 2011
Производство: США, Discovery Science
Жанр: Документальный фильм
Продолжительность: 10 серий по 44 минуты
Перевод: Профессиональный (Одноголосый)
Оригинальный аудиопоток: Отсутствует
Режиссер: The Incubator, Revelations Entertainment
В ролях: Морган Фримен
Описание: Сериал Через Червоточину с ведущим - Морганом Фрименом исследует самые глубокие тайны существования - вопросы, которые всегда озадачивали человечество. Эти вопросы были обдуманы самыми изящными умами человеческого рода. Теперь, наука приблизилась к сути, в область где твердые факты и свидетельства могут быть в состоянии предоставить нам ответы, вместо философских теорий.
"Через Червоточину" примирит самые яркие умы и лучшие идеи с самых передних краев наук, - Астрофизики, Астробиологии, Квантовой механики, Теории струн, и более - чтобы показать экстраординарную правду о нашей Вселенной.
Источник/Качество: TVRip
Формат: AVI
Видео кодек: XviD
Аудио кодек: MP3
Видео: 720x404, ~1 800 Kbps, 25fps,
Аудио: 128 Kbps, 44100Hz, 2ch



Format : AVI
Format/Info : Audio Video Interleave
File size : 621 MiB
Duration : 44mn 4s
Overall bit rate : 1 970 Kbps
Video
ID : 0
Format : MPEG-4 Visual
Format profile : Advanced [email protected]
Format settings, BVOP : 2
Format settings, QPel : No
Format settings, GMC : No warppoints
Format settings, Matrix : Default (H.263)
Codec ID : XVID
Codec ID/Hint : XviD
Duration : 44mn 4s
Bit rate : 1 830 Kbps
Width : 720 pixels
Height : 404 pixels
Display aspect ratio : 16:9
Frame rate : 25.000 fps
Color space : YUV
Chroma subsampling : 4:2:0
Bit depth : 8 bits
Scan type : Progressive
Compression mode : Lossy
Bits/(Pixel*Frame) : 0.252
Stream size : 577 MiB (93%)
Writing library : XviD 63
Audio
ID : 1
Format : MPEG Audio
Format version : Version 1
Format profile : Layer 3
Mode : Joint stereo
Mode extension : MS Stereo
Codec ID : 55
Codec ID/Hint : MP3
Duration : 44mn 4s
Bit rate mode : Constant
Bit rate : 128 Kbps
Channel(s) : 2 channels
Sampling rate : 44.1 KHz
Compression mode : Lossy
Stream size : 40.3 MiB (6%)
Alignment : Aligned on interleaves
Interleave, duration : 26 ms (0.65 video frame)
Writing library : LAME3.97
Download / Скачать

Хотите скачать бесплатно? Зарегистрируйтесь на сайте (ссылка на регистрацию). Pirat.ca - самый быстрый торрент трекер в рунете!

Как скачивать  ·   Что такое торрент  ·   Рейтинг и ограничения



Последний раз редактировалось: Fennec (2011-11-12 10:00), всего редактировалось 8 раз(а)

Fennec ®

Лоцман

66

Пост 13-Ноя-2011 13:12 (спустя 3 дня)

[Q] 

Если нужен первый сезон, пишите выложу

_________________
Fennec Fox
[Профиль]  [ЛС] 

vladlen787

Лоцман

Пост 20-Ноя-2011 00:57 (спустя 6 дней)

[Q] 

привет! с удовольствием скачаю первый сезон. спасибо.
[Профиль]  [ЛС] 

daemon_chiff

Шкипер

Пост 22-Ноя-2011 07:08 (спустя 2 дня 6 часов)

[Q] 

выкладывай - интересная раздача. и - спасибо!
[Профиль]  [ЛС] 

Fennec ®

Лоцман

66

Пост 22-Ноя-2011 11:36 (спустя 4 часа)

[Q] 

Через червоточину с Морганом Фрименом / Through the Wormhole with Morgan Freeman (Сезон 1) (The Incubator, Revelations Entertainment) [2010 г., Документальный фильм, SATRip] (VO) (пост)
Первый сезон полностью. Всегда пожалуйста =)

_________________
Fennec Fox
[Профиль]  [ЛС] 

Kristi555

Шкипер

610

Пост 07-Мар-2012 23:41 (спустя 3 месяца 15 дней)

[Q] 

Ждем третий сезон
[Профиль]  [ЛС] 

patriarchurza

Штурман

33

Пост 12-Июн-2012 21:51 (спустя 3 месяца 4 дня)

[Q] 

[Профиль]  [ЛС] 

Peperonchino

Морской Волк

Пост 20-Май-2013 20:12 (спустя 11 месяцев 7 дней)

[Q] 

дайте пожалуйста скорости
[Профиль]  [ЛС] 

Peperonchino

Морской Волк

Пост 20-Май-2013 20:13 (спустя 1 минута)

[Q] 

[Профиль]  [ЛС] 
Показать сообщения:    
Ответить на тему

Текущее время: Сегодня 16:29

Часовой пояс: GMT + 4



Вы не можете начинать темы
Вы не можете отвечать на сообщения
Вы не можете редактировать свои сообщения
Вы не можете удалять свои сообщения
Вы не можете голосовать в опросах
Вы не можете прикреплять файлы к сообщениям
Вы не можете скачивать файлы

▼ Вниз