ML
     
  Уважаемый Гость!
Вы можете поддержать проект и зарегистрироваться у наших партнеров - онлайн-стратегия MyLands. При регистрации в игре Вы получите код, который сможете активировать после регистрации на pirat.ca и получить 1000 дублонов.

Ваш код:
a01a592a88af5f9996a6d1baec61b18a1769954d
 
     

Парни с пушками / Sons of Guns (11 серий) (Зак МакФарлэйн / Zac McFarlane) [2011 г., документальный, реальное ТВ, SATRip] (VO)

Ответить на тему
 
Автор
Сообщение

Пост 10-Ноя-2011 09:36

[Q] 

seluson

Штурман

Парни с пушками / Sons of Guns
Год выпуска: 2011
Страна:США
Мировая премьера: 12 января 2011
Российская премьера: 1 сентября 2011
Производство: США,Discovery
Жанр: документальный,реальное ТВ
Продолжительность: 00:22:00
Перевод: Профессиональный (одноголосый)
Режиссер: Зак МакФарлэйн / Zac McFarlane
В ролях: William Hayden, Glenn Flem Fleming, Vincent Buckles, Kristafor Ford, Joesph Meaux, Stephanie HaydenСэмпл/ IMDB/ КиноПоискИсточник/Качество: SATRip
Формат: AVI
Видео кодек: XviD
Аудио кодек: MP3
Видео: 720x432 (1.66:1), 25 fps, XviD MPEG-4 ~1693 kbps avg, 0.22 bit/pixel
Аудио: 48 kHz, MPEG Layer 3, 1 ch, ~96.00 kbps avg
Парни с пушками — Универсальное оружие-
Владелец Red Jacket Firearms Уилл должен объединить в одном универсальном оружии для спецназа характеристики автомата М16 и дробовика.-Парни с пушками — Пушка Гражданской войны/Глушитель для дробовика-
Владелец Red Jacket Firearms Уилл должен сделать невозможное: придумать глушитель для дробовика. Его друг Гленн привозит редкую пушку эпохи Гражданской войны ценой 250000 долларов.-Парни с пушками — Огнемет-
Владелец Red Jacket Firearms Уилл встречается с Вуди Уильямсом, огнеметчиком времен Второй мировой войны, и вместе со своей командой пробует восстановить огнемет Вуди.-Парни с пушками — Автомат Браунинга/Большая ставка Стефани-
Владелец Red Jacket Firearms Уилл и его команда переделывают "двушку" (автомат М2 Браунинга 1941 года калибром полдюйма) в полностью автоматическое оружие.-Парни с пушками — Глушитель для АК-47-
Владелец Red Jacket Firearms Уилл должен выполнить совершенно новое задание - внутренний глушитель для АК-47.-Парни с пушками — Оружие-кофемолка/Катана-
Специалист по оружию Тайгер МакКи просит владельца Red Jacket Firearms Уилла сделать то, что он называет "самурайским мечом современного воина" - легкую винтовку АР-15 Катана.-Парни с пушками — Автомат с дистанционным управлением-
Владелец Red Jacket Firearms Уилл встречается со специалистом по поддержанию безопасности в Афганистане, которому нужен автомат с дистанционным управлением с установкой на Humvee.-Парни с пушками — Пистолет-пулемет/Мачете-
Местный шериф просит основателя Red Jacket Firearms Уилла переделать полуавтоматический пистолет-пулемет в современное автоматическое оружие.-Парни с пушками. Оружие БМП. Red Jacket-
Основатель Red Jacket Firearms Уилл создает уникальное охотничье ружье, установленное на внедорожник. Он также нанимает нового мастера, что дает неожиданные результаты.-Парни с пушками. Автоматомания. Новичок-
Уилл переделывает автомат 1919 года в оружие для конкурса автоматов. Парни устраивают новичку Флемму нелегкую жизнь.-Парни с пушками. Базука-
Основатель Red Jacket Firearms Уилл делает базуку для спектакля про Вторую мировую войну.-
Формат : AVI
Формат/Информация : Audio Video Interleave
Размер файла : 283 Мбайт
Продолжительность : 22 м.
Общий поток : 1799 Кбит/сек
Программа кодирования : VirtualDubModRus 1.5.10.2 (build 2542/release)
Библиотека кодирования : VirtualDubMod build 2542/release
Видео
Идентификатор : 0
Формат : MPEG-4 Visual
Профиль формата : Advanced [email protected]
Параметр BVOP формата : 2
Параметр QPel формата : Нет
Параметр GMC формата : Без точки перехода
Параметр матрицы формата : Default (MPEG)
Идентификатор кодека : XVID
Идентификатор кодека/Подсказка : XviD
Продолжительность : 22 м.
Битрейт : 1693 Кбит/сек
Ширина : 720 пикс.
Высота : 432 пикс.
Соотношение сторон : 1,662
Частота кадров : 25,000 кадр/сек
Цветовое пространство : YUV
Подвыборка цветности : 4:2:0
Битовая глубина : 8 бит
Тип развёртки : Прогрессивная
Метод сжатия : С потерями
Бит/(Пиксели*Кадры) : 0.218
Размер потока : 267 Мбайт (94%)
Библиотека кодирования : XviD 61
Аудио
Идентификатор : 1
Формат : MPEG Audio
Версия формата : Version 1
Профиль формата : Layer 3
Идентификатор кодека : 55
Идентификатор кодека/Подсказка : MP3
Продолжительность : 22 м.
Вид битрейта : Постоянный
Битрейт : 96,0 Кбит/сек
Каналы : 1 канал
Частота : 48,0 КГц
Метод сжатия : С потерями
Задержка видео : 3 мс.
Размер потока : 15,1 Мбайт (5%)
Выравнивание : Разделение по промежуткам
Продолжительность промежутка : 40 мс. (1,00 видеокадр)
Время предзагрузки промежутка : 500 ms







Download / Скачать

Хотите скачать бесплатно? Зарегистрируйтесь на сайте (ссылка на регистрацию). Pirat.ca - самый быстрый торрент трекер в рунете!

Как скачивать  ·   Что такое торрент  ·   Рейтинг и ограничения

БаРоДа

Лоцман

Пост 05-Мар-2012 11:28 (спустя 3 месяца 25 дней)

[Q] 

Спасиба,камрад
[Профиль]  [ЛС] 
Показать сообщения:    
Ответить на тему

Текущее время: Сегодня 09:48

Часовой пояс: GMT + 4



Вы не можете начинать темы
Вы не можете отвечать на сообщения
Вы не можете редактировать свои сообщения
Вы не можете удалять свои сообщения
Вы не можете голосовать в опросах
Вы не можете прикреплять файлы к сообщениям
Вы не можете скачивать файлы

▼ Вниз