ML
     
  Уважаемый Гость!
Вы можете поддержать проект и зарегистрироваться у наших партнеров - онлайн-стратегия MyLands. При регистрации в игре Вы получите код, который сможете активировать после регистрации на pirat.ca и получить 1000 дублонов.

Ваш код:
db0e0ad91548759ffeb9bb88bed405e1a4b3c165
 
     

Через червоточину с Морганом Фрименом / Through the Wormhole with Morgan Freeman (Сезон 1) (The Incubator, Revelations Entertainment) [2010 г., Документальный фильм, SATRip] (VO)

Ответить на тему
 
Автор
Сообщение

Пост 22-Ноя-2011 11:31

[Q] 

Fennec

Лоцман

Через червоточину с Морганом Фрименом / Through the Wormhole with Morgan Freeman
Год выпуска: 2010
Мировая премьера: 8 июня 2010
Российская премьера: 28 июля 2010
Дата выхода DVD: 8 марта 2011
Производство: США, Discovery Science
Жанр: Документальный фильм
Продолжительность: 8 серий по 44 минуты
Перевод: Профессиональный одноголосый
Оригинальный аудиопоток: Отсутствует
Режиссер: Kurt Sayenga
В ролях: Морган Фримен
Описание: Сериал Через Червоточину с ведущим - Морганом Фрименом исследует самые глубокие тайны существования - вопросы, которые всегда озадачивали человечество. Из чего мы сделаны? Что было перед началом всего? Действительно ли мы одиноки во вселенной? Есть ли создатель? Эти вопросы были обдуманы самыми изящными умами человеческого рода. Теперь, наука приблизилась к сути, в область где твердые факты и свидетельства могут быть в состоянии предоставить нам ответы, вместо философских теорий.
"Через Червоточину" примирит самые яркие умы и лучшие идеи с самых передних краев наук, - Астрофизики, Астробиологии, Квантовой механики, Теории струн, и более - чтобы показать экстраординарную правду о нашей Вселенной.
Доп. информация: Серия 1. Создатель / Is There a Creator?
Серия 2. Загадка черных дыр / The Riddle of Black Holes.
Серия 3. Путешествие во времени - фантазия или реальность? / Is Time Travel Possible?
Серия 4. Что произошло до начала начал? / What Happened Before the Beginning?
Серия 5. Как мы сюда попали? / How Did We Get Here?
Серия 6. Мы одни или нет? / Are We Alone?
Серия 7. Из чего мы действительно состоим? / What Are We Really Made of?
Серия 8. За пределами темноты / Beyond the Darkness.
Кинопоиск, IMDb
Источник/Качество: SATRip
Формат: AVI
Видео кодек: DivX
Аудио кодек: MP3
Видео: 704x400 (1.76:1), 25 fps
Аудио: 48 kHz, AC3 Dolby Digital, 2/0 (L,R) ch, ~192 kbps
Format : AVI
Format/Info : Audio Video Interleave
File size : 596 MiB
Duration : 44mn 15s
Overall bit rate : 1 882 Kbps
Writing application : VirtualDubMod 1.5.10.2 (build 2542/release)
Writing library : VirtualDubMod build 2542/release
Video
ID : 0
Format : MPEG-4 Visual
Format settings, BVOP : 1
Format settings, QPel : No
Format settings, GMC : No warppoints
Format settings, Matrix : Default (H.263)
Muxing mode : Packed bitstream
Codec ID : DX50
Codec ID/Hint : DivX 5
Duration : 44mn 15s
Bit rate : 1 680 Kbps
Width : 704 pixels
Height : 400 pixels
Display aspect ratio : 16:9
Frame rate : 25.000 fps
Color space : YUV
Chroma subsampling : 4:2:0
Bit depth : 8 bits
Scan type : Progressive
Compression mode : Lossy
Bits/(Pixel*Frame) : 0.239
Stream size : 532 MiB (89%)
Writing library : DivX 6.8.5 (UTC 2009-08-20)
Audio
ID : 1
Format : AC-3
Format/Info : Audio Coding 3
Mode extension : CM (complete main)
Codec ID : 2000
Duration : 44mn 15s
Bit rate mode : Constant
Bit rate : 192 Kbps
Channel(s) : 2 channels
Channel positions : Front: L R
Sampling rate : 48.0 KHz
Bit depth : 16 bits
Compression mode : Lossy
Delay relative to video : 16ms
Stream size : 60.8 MiB (10%)
Alignment : Split accross interleaves
Interleave, duration : 40 ms (1.00 video frame)
Interleave, preload duration : 500 ms



Download / Скачать

Хотите скачать бесплатно? Зарегистрируйтесь на сайте (ссылка на регистрацию). Pirat.ca - самый быстрый торрент трекер в рунете!

Как скачивать  ·   Что такое торрент  ·   Рейтинг и ограничения



Последний раз редактировалось: Fennec (2011-11-24 09:56), всего редактировалось 5 раз(а)

Fennec ®

Лоцман

66

Пост 22-Ноя-2011 11:37 (спустя 6 минут)

[Q] 

Через червоточину с Морганом Фрименом / Through the Wormhole with Morgan Freeman (Сезон 2) [2011 г., Документальный, TVRip] (VO)
Полный второй сезон =)

_________________
Fennec Fox
[Профиль]  [ЛС] 

excellent2011

Шкипер

Пост 13-Янв-2012 23:14 (спустя 1 месяц 21 день)

[Q] 

ЕПТ...ЧЁ ЗА Х...!!!ДАЙТЕ СКОРОСТИ!!!
[Профиль]  [ЛС] 

Muller78

Лоцман

Пост 29-Фев-2012 21:00 (спустя 1 месяц 15 дней)

[Q] 

[Профиль]  [ЛС] 
Показать сообщения:    
Ответить на тему

Текущее время: Сегодня 08:06

Часовой пояс: GMT + 4



Вы не можете начинать темы
Вы не можете отвечать на сообщения
Вы не можете редактировать свои сообщения
Вы не можете удалять свои сообщения
Вы не можете голосовать в опросах
Вы не можете прикреплять файлы к сообщениям
Вы не можете скачивать файлы

▼ Вниз