ML
     
  Уважаемый Гость!
Вы можете поддержать проект и зарегистрироваться у наших партнеров - онлайн-стратегия MyLands. При регистрации в игре Вы получите код, который сможете активировать после регистрации на pirat.ca и получить 1000 дублонов.

Ваш код:
a01a592a88af5f9996a6d1baec61b18a1769954d
 
     

Морская пехота в горах / Горная морская пехота / Mountain marines (Carl Kriegeskotte) [2003 г., Документальный, познавательный, SATRip] MVO

Ответить на тему
 
Автор
Сообщение

Пост 18-Мар-2012 21:25

[Q] 

UcrusPazzo

Морская пехота в горах /
Горная морская пехота / Mountain marines
-Год выпуска: 2003
Мировая премьера: 2003 (USA)
Производство: США, The Silver Owl Group Inc.
Жанр: Документальный, познавательный
Продолжительность серии: 00:47:01
Перевод: Профессиональный (одноголосый, закадровый)
Субтитры: отсутствуют-Режиссер: Carl Kriegeskotte-В ролях, рассказчики: Neil Grainger, Doug Preis-Описание: Познакомьтесь с подготовкой альпийских стрелков в учебном центре морской пехоты в Калифорнии, где условия похожи на такие места, как Афганистан и Ирак.-Источник/Качество: SATRip
Формат: MPG
Видео кодек: MPEG2
Аудио кодек: MPEG1
Видео: 2884 Кбит/сек; 544*576 (4:3); в 25,000 кадров/сек; MPEG Video (PAL) (Version 2) ([email protected]) (CustomMatrix / BVOP)
Аудио: 96,0 Кбит/сек; 48,0 КГц; 1 канал; MPEG Audio (Version 2) (Layer 2)
Общее
Формат : MPEG-PS
Размер файла : 1022 Мбайт
Продолжительность : 47 м.
Режим общего битрейта : Переменный
Общий поток : 3040 Кбит/сек
Библиотека кодирования : encoded by TMPGEnc MPEG Editor Version. 1.0.1.59
Видео
Идентификатор : 224 (0xE0)
Формат : MPEG Video
Версия формата : Version 2
Профиль формата : [email protected]
Параметр BVOP формата : Да
Параметр матрицы формата : Выборочная
Параметр GOP формата : M=3, N=18
Продолжительность : 47 м.
Вид битрейта : Переменный
Битрейт : 2884 Кбит/сек
Максимальный битрейт : 5000 Кбит/сек
Ширина : 544 пикселя
Высота : 576 пикселей
Соотношение сторон : 4:3
Частота кадров : 25,000 кадров/сек
Стандарт вещания : PAL
Цветовое пространство : YUV
Субдискретизация насыщенности : 4:2:0
Битовая глубина : 8 бит
Тип развёртки : Чересстрочная
Порядок развёртки : Верхнее поле первое
Метод сжатия : С потерями
Бит/(Пиксели*Кадры) : 0.368
Размер потока : 970 Мбайт (95%)
Библиотека кодирования : TMPGEnc MPEG Editor 1.0.1.59
Коэффициенты матрицы : SMPTE 170M
Аудио
Идентификатор : 192 (0xC0)
Формат : MPEG Audio
Версия формата : Version 1
Профиль формата : Layer 2
Продолжительность : 47 м.
Вид битрейта : Постоянный
Битрейт : 96,0 Кбит/сек
Каналы : 1 канал
Частота : 48,0 КГц
Метод сжатия : С потерями
Размер потока : 32,3 Мбайт (3%)
Download / Скачать

Хотите скачать бесплатно? Зарегистрируйтесь на сайте (ссылка на регистрацию). Pirat.ca - самый быстрый торрент трекер в рунете!

Как скачивать  ·   Что такое торрент  ·   Рейтинг и ограничения



Последний раз редактировалось: UcrusPazzo (2013-05-19 17:08), всего редактировалось 1 раз

chtv

Шкипер

Пост 18-Мар-2012 21:50 (спустя 24 минуты)

[Q] 

За материал спасибо.
Познакомьтесь с подготовкой альпийских стрелков в учебном центре морской пехоты в Калифорнии
Неужели именно таких в Калифорнии готовят?
[Профиль]  [ЛС] 

me14

999

Пост 19-Мар-2012 20:28 (спустя 22 часа)

[Q] 


_________________
Если вы все еще не забанены - это не ваша заслуга, а модераторская недоработка.
[Профиль]  [ЛС] 
Показать сообщения:    
Ответить на тему

Текущее время: Сегодня 09:45

Часовой пояс: GMT + 4



Вы не можете начинать темы
Вы не можете отвечать на сообщения
Вы не можете редактировать свои сообщения
Вы не можете удалять свои сообщения
Вы не можете голосовать в опросах
Вы не можете прикреплять файлы к сообщениям
Вы не можете скачивать файлы

▼ Вниз