ML
     
  Уважаемый Гость!
Вы можете поддержать проект и зарегистрироваться у наших партнеров - онлайн-стратегия MyLands. При регистрации в игре Вы получите код, который сможете активировать после регистрации на pirat.ca и получить 1000 дублонов.

Ваш код:
c89b4b6523eaac3173e9a9c062ac1a19db575961
 
     

Восстановление Японии / Restoration the Japan (Сезон: 1 / Серии: 1-6) (Hideyuki Tokigawa) [2012 г., Документальный, SATRip] MVO

Ответить на тему
 
Автор
Сообщение

Пост 24-Мар-2012 23:54

[Q] 

UcrusPazzo

Восстановление Японии / Restoration the Japan -Год выпуска: 2012
Производство: США, Discovery
Жанр: Документальный
Продолжительность серии: 6 серий по ~ 00:22:20, общее время - 02:14:10
Перевод: Профессиональный (одноголосый, закадровый)
Субтитры: отсутствуют-Режиссер: Hideyuki Tokigawa-Описание: Вы увидите, как инженеры и ученые неустанно работают для того, чтобы улучшить жизнь людей, пострадавших от землетрясения.-Источник/Качество: SATRip
Формат: AVI
Видео кодек: XviD
Аудио кодек: MP3
Видео: 720x400 (1.80:1), 25 fps, XviD MPEG-4 ~1647 kbps avg, 0.23 bit/pixel (Все серии одинаковы по данным)
Аудио: 48 kHz, MPEG Layer 3, 2 ch, ~256.00 kbps avg
Общее
Формат : AVI
Формат/Информация : Audio Video Interleave
Размер файла : 306 Мбайт
Продолжительность : 22 м.
Общий поток : 1913 Кбит/сек
Библиотека кодирования : TMPGEnc 4.0 XPress Version. 4.7.7.307
Видео
Идентификатор : 0
Формат : MPEG-4 Visual
Профиль формата : Advanced [email protected]
Параметр BVOP формата : 2
Параметр QPel формата : Нет
Параметр GMC формата : Без точки перехода
Параметр матрицы формата : Default (H.263)
Режим смешивания : Сжатый битовый поток
Идентификатор кодека : XVID
Идентификатор кодека/Подсказка : XviD
Продолжительность : 22 м.
Битрейт : 1644 Кбит/сек
Ширина : 720 пикселей
Высота : 400 пикселей
Соотношение сторон : 16:9
Частота кадров : 25,000 кадров/сек
Цветовое пространство : YUV
Субдискретизация насыщенности : 4:2:0
Битовая глубина : 8 бит
Тип развёртки : Прогрессивная
Метод сжатия : С потерями
Бит/(Пиксели*Кадры) : 0.228
Размер потока : 263 Мбайт (86%)
Библиотека кодирования : XviD 64
Аудио
Идентификатор : 1
Формат : MPEG Audio
Версия формата : Version 1
Профиль формата : Layer 3
Идентификатор кодека : 55
Идентификатор кодека/Подсказка : MP3
Продолжительность : 22 м.
Вид битрейта : Постоянный
Битрейт : 256 Кбит/сек
Каналы : 2 канала
Частота : 48,0 КГц
Метод сжатия : С потерями
Размер потока : 41,0 Мбайт (13%)
Выравнивание : Соединение по промежуткам
Продолжительность промежутка : 40 мс. (1,00 видеокадр)
Время предзагрузки промежутка : 408 мс.
Download / Скачать

Хотите скачать бесплатно? Зарегистрируйтесь на сайте (ссылка на регистрацию). Pirat.ca - самый быстрый торрент трекер в рунете!

Как скачивать  ·   Что такое торрент  ·   Рейтинг и ограничения



Последний раз редактировалось: UcrusPazzo (2013-05-19 16:59), всего редактировалось 3 раз(а)

Seva78

1518

Пост 25-Мар-2012 00:03 (спустя 9 минут)

[Q] 


_________________
[Профиль]  [ЛС] 

mdv6508

Лоцман

Пост 25-Мар-2012 16:01 (спустя 15 часов)

[Q] 

так то интересно
[Профиль]  [ЛС] 

Krukov_Aleksey

Корсар

Пост 19-Дек-2012 01:09 (спустя 8 месяцев 24 дня)

[Q] 

Бедные японцы вот вам и Чернобыль 2012. Покупайте рыбку красную икорку. Она там на шару валяется. Жители ее не берут, а мы да
[Профиль]  [ЛС] 

Aviraelis

Морской Волк

24

Пост 07-Янв-2013 23:38 (спустя 19 дней)

[Q] 

А нам всегда все говно сливают) страна третьего мира) А японцев жаль. Они давно уже не кровожадные и давно нам не враги, а даже союзники. Фильм хороший - они быстро все восстановят
[Профиль]  [ЛС] 
Показать сообщения:    
Ответить на тему

Текущее время: Сегодня 22:28

Часовой пояс: GMT + 4



Вы не можете начинать темы
Вы не можете отвечать на сообщения
Вы не можете редактировать свои сообщения
Вы не можете удалять свои сообщения
Вы не можете голосовать в опросах
Вы не можете прикреплять файлы к сообщениям
Вы не можете скачивать файлы

▼ Вниз