ML
     
  Уважаемый Гость!
Вы можете поддержать проект и зарегистрироваться у наших партнеров - онлайн-стратегия MyLands. При регистрации в игре Вы получите код, который сможете активировать после регистрации на pirat.ca и получить 1000 дублонов.

Ваш код:
11f49771fdf057c9d51610e4a0925c3b46ddb655
 
     

Возрождение: На смену башням-близнецам / Rising: Rebuilding Ground Zero (Сезон: 1 / Серии: 1-6) (Kate Cohen, Крис Кэссел / Chris Cassel) [2011 г., Документальный, Научно-познавательный, SATRip] MVO

Ответить на тему
 
Автор
Сообщение

Пост 25-Мар-2012 14:57

[Q] 

UcrusPazzo

Возрождение: На смену башням-близнецам /
Rising: Rebuilding Ground Zero
-Год выпуска: 2011
Мировая премьера: 2011 (USA)
Производство: США, DreamWorks Television, KPI Productions
Жанр: Документальный, Научно-познавательный
Продолжительность серии: 6 серий ~ по 00:44:00, общее время - 04:23:49
Перевод: Профессиональный (одноголосый, закадровый)
Субтитры: отсутствуют-Режиссер: Kate Cohen, Крис Кэссел / Chris Cassel-Описание: История восстановления участка земли в 16 акров в нижней части Манхэттена и исцеления нации, снятая Стивеном Спилбергом. Это новый Всемирный торговый центр, который поднимется ввысь на 1776 футов, воплощение физического восстановления Америки после нападений 11 сентября.
Серия 1 Через десять лет после трагедии 11 сентября строительство Центра международной торговли продолжается. Взгляните на самое знаменитое будущее здание Нью-Йорка - символ оптимизма.
Серия 2 Рассказ об уникальных технологических характеристиках Центра международной торговли: самые быстрые лифты в Америке, невероятная прочность, 40-этажный шпиль.
Серия 3 Строительство Всемирного торгового центра 1 продолжается. Посмотрите на работы на транспортной развязке: центр города получит свой Большой вокзал.
Серия 4 Рассказ людей из районов, пострадавших в результате терактов 11 сентября 2001, о восстановлении офисных и жилых зданий, и построенной восточной части Всемирного торгового центра 1.
Серия 5 Посетите новый Национальный музей 11 сентября. Строители и хранители готовятся представить экспонаты: лестницы, искореженные пожарные машины и фундамент башен-близнецов
Серия 6 Рабочие стремятся закончить площадь Памяти, где расположены самые большие в мире фонтаны и растут 400 деревьев, к десятилетней годовщине трагедии.-Источник/Качество: SATRip
Формат: AVI
Видео кодек: XviD
Аудио кодек: MP3
Видео: 720x416 (1.73:1), 25 fps, ~1597 kbps avg, 0.21 bit/pixel
Аудио: 48 kHz, Microsoft MPEG, 2 ch, ~192.00 kbps avg
Аудио #2: 48 kHz, Microsoft MPEG, 2 ch, ~192.00 kbps avg
Общее
Формат : AVI
Формат/Информация : Audio Video Interleave
Размер файла : 628 Мбайт
Продолжительность : 43 м.
Общий поток : 1997 Кбит/сек
Программа кодирования : VirtualDubMod 1.5.10.2 (build 2542/release)
Библиотека кодирования : VirtualDubMod build 2542/release
Видео
Идентификатор : 0
Формат : MPEG-4 Visual
Профиль формата : [email protected]
Параметр BVOP формата : Нет
Параметр QPel формата : Нет
Параметр GMC формата : Без точки перехода
Параметр матрицы формата : Default (H.263)
Идентификатор кодека : XVID
Идентификатор кодека/Подсказка : XviD
Продолжительность : 43 м.
Битрейт : 1598 Кбит/сек
Ширина : 720 пикселей
Высота : 416 пикселей
Соотношение сторон : 16:9
Частота кадров : 25,000 кадров/сек
Цветовое пространство : YUV
Субдискретизация насыщенности : 4:2:0
Битовая глубина : 8 бит
Тип развёртки : Прогрессивная
Метод сжатия : С потерями
Бит/(Пиксели*Кадры) : 0.213
Размер потока : 502 Мбайт (80%)
Библиотека кодирования : XviD 1.1.2 (UTC 2006-11-01)
Аудио #1
Идентификатор : 1
Формат : MPEG Audio
Версия формата : Version 1
Профиль формата : Layer 2
Идентификатор кодека : 50
Продолжительность : 43 м.
Вид битрейта : Постоянный
Битрейт : 192 Кбит/сек
Каналы : 2 канала
Частота : 48,0 КГц
Метод сжатия : С потерями
Размер потока : 60,3 Мбайт (10%)
Выравнивание : Разделение по промежуткам
Продолжительность промежутка : 40 мс. (1,00 видеокадр)
Время предзагрузки промежутка : 500 мс.
Аудио #2
Идентификатор : 2
Формат : MPEG Audio
Версия формата : Version 1
Профиль формата : Layer 2
Идентификатор кодека : 50
Продолжительность : 43 м.
Вид битрейта : Постоянный
Битрейт : 192 Кбит/сек
Каналы : 2 канала
Частота : 48,0 КГц
Метод сжатия : С потерями
Размер потока : 60,3 Мбайт (10%)
Выравнивание : Разделение по промежуткам
Продолжительность промежутка : 40 мс. (1,00 видеокадр)
Время предзагрузки промежутка : 500 мс.
Download / Скачать

Хотите скачать бесплатно? Зарегистрируйтесь на сайте (ссылка на регистрацию). Pirat.ca - самый быстрый торрент трекер в рунете!

Как скачивать  ·   Что такое торрент  ·   Рейтинг и ограничения

vetalvet1994

Штурман

Пост 30-Янв-2015 11:45 (спустя 2 года 10 месяцев)

[Q] 

Спасибо!!! Супер!
[Профиль]  [ЛС] 
Показать сообщения:    
Ответить на тему

Текущее время: Сегодня 03:10

Часовой пояс: GMT + 4



Вы не можете начинать темы
Вы не можете отвечать на сообщения
Вы не можете редактировать свои сообщения
Вы не можете удалять свои сообщения
Вы не можете голосовать в опросах
Вы не можете прикреплять файлы к сообщениям
Вы не можете скачивать файлы

▼ Вниз