ML
     
  Уважаемый Гость!
Вы можете поддержать проект и зарегистрироваться у наших партнеров - онлайн-стратегия MyLands. При регистрации в игре Вы получите код, который сможете активировать после регистрации на pirat.ca и получить 1000 дублонов.

Ваш код:
a978488e62322cd72e113ab723b8a7fdc10eb9b9
 
     

Запредельное оружие / Ultimate Weapons (Сезон: 1 / Серии: 1-5 из 5) (Дэвид Старки / David Starkey) [2009 г., Документальный, реальное ТВ, SATRip] MVO

Ответить на тему
 
Автор
Сообщение

Пост 31-Мар-2012 22:37

[Q] 

UcrusPazzo

Запредельное оружие / Ultimate Weapons -Год выпуска: 2009
Производство: США, Brian Waddell Productions Limited
Жанр: Документальный, реальное ТВ
Продолжительность серии: 00:44:00
Перевод: Профессиональный (одноголосый, закадровый)
Субтитры: отсутствуют-Режиссер: Дэвид Старки / David Starkey-В ролях: Д.С. Дуглас / D.C. Douglas-Описание: Сериал «Запредельное оружие» — это новая динамичная шести серийная программа о самых последних разработках в области современного вооружения. Вы увидите лучшие снайперские винтовки, танки, солдат-роботов и системы ближнего боя. Программа подробно рассказывает обо всех видах оружия — от страшного оружия поражения, предназначенного эффективно подавлять противника самыми разрушительными методами, до автономных и малозаметных автоматизированных «разумных» систем, которые способны наносить точные удары и поражать цели. Ни одна деталь не останется без внимания. По ходу программы вы увидите, какое оружие является самым запредельным и получит звание «победителя».
Серия 01. Роботы-воины / Robotic Warriors
Серия 02. Снайперские винтовки / Sniper Rifles
Серия 04. Оружие ближнего боя / Close Quarter Battle
Серия 05. Огневая мощь / Firepower
Серия 06. Тяжелый металл / Heavy Metal
-Источник/Качество: SATRip
Формат: AVI
Видео кодек: XviD
Аудио кодек: MP3
Видео: 656x424 (1.55:1), 25 fps, XviD MPEG-4 ~1300 kbps avg, 0.19 bit/pixel
Аудио: 48 kHz, MPEG Layer 3, 2 ch, ~128.00 kbps avg
Общее
Формат : AVI
Формат/Информация : Audio Video Interleave
Размер файла : 452 Мбайт
Продолжительность : 43 м.
Общий поток : 1439 Кбит/сек
Программа кодирования : VirtualDubMod 1.5.10.2 (build 2542/release)
Библиотека кодирования : VirtualDubMod build 2542/release
Видео
Идентификатор : 0
Формат : MPEG-4 Visual
Профиль формата : Advanced [email protected]
Параметр BVOP формата : 2
Параметр QPel формата : Нет
Параметр GMC формата : Без точки перехода
Параметр матрицы формата : Default (H.263)
Режим смешивания : Сжатый битовый поток
Идентификатор кодека : XVID
Идентификатор кодека/Подсказка : XviD
Продолжительность : 43 м.
Битрейт : 1301 Кбит/сек
Ширина : 656 пикселей
Высота : 424 пикселя
Соотношение сторон : 3:2
Частота кадров : 25,000 кадров/сек
Цветовое пространство : YUV
Субдискретизация насыщенности : 4:2:0
Битовая глубина : 8 бит
Тип развёртки : Прогрессивная
Метод сжатия : С потерями
Бит/(Пиксели*Кадры) : 0.187
Размер потока : 409 Мбайт (90%)
Библиотека кодирования : XviD 1.2.1 (UTC 2008-12-04)
Аудио
Идентификатор : 1
Формат : MPEG Audio
Версия формата : Version 1
Профиль формата : Layer 3
Режим : Joint stereo
Расширение режима : MS Stereo
Идентификатор кодека : 55
Идентификатор кодека/Подсказка : MP3
Продолжительность : 43 м.
Вид битрейта : Постоянный
Битрейт : 128 Кбит/сек
Каналы : 2 канала
Частота : 48,0 КГц
Метод сжатия : С потерями
Размер потока : 40,2 Мбайт (9%)
Выравнивание : Соединение по промежуткам
Продолжительность промежутка : 40 мс. (1,00 видеокадр)
Время предзагрузки промежутка : 504 мс.
Библиотека кодирования : LAME3.98 (alpha)
Download / Скачать

Хотите скачать бесплатно? Зарегистрируйтесь на сайте (ссылка на регистрацию). Pirat.ca - самый быстрый торрент трекер в рунете!

Как скачивать  ·   Что такое торрент  ·   Рейтинг и ограничения



Последний раз редактировалось: UcrusPazzo (2013-05-19 16:54), всего редактировалось 1 раз

me14

999

Пост 31-Мар-2012 23:06 (спустя 28 минут)

[Q] 

ay

_________________
Если вы все еще не забанены - это не ваша заслуга, а модераторская недоработка.
[Профиль]  [ЛС] 

sanches997

Морской Волк

Пост 07-Июн-2013 18:37 (спустя 1 год 2 месяца)

[Q] 

[Профиль]  [ЛС] 
Показать сообщения:    
Ответить на тему

Текущее время: Сегодня 22:05

Часовой пояс: GMT + 4



Вы не можете начинать темы
Вы не можете отвечать на сообщения
Вы не можете редактировать свои сообщения
Вы не можете удалять свои сообщения
Вы не можете голосовать в опросах
Вы не можете прикреплять файлы к сообщениям
Вы не можете скачивать файлы

▼ Вниз