ML
     
  Уважаемый Гость!
Вы можете поддержать проект и зарегистрироваться у наших партнеров - онлайн-стратегия MyLands. При регистрации в игре Вы получите код, который сможете активировать после регистрации на pirat.ca и получить 1000 дублонов.

Ваш код:
c3360d664ceb84802c84b88ed062a5d134e2ba97
 
     

Механизмы организма / Механизм тела / The Body Machine (Робин Бикнелл / Robin Bicknell) [2008 г., Документальный, HDTVRip] MVO

Ответить на тему
 
Автор
Сообщение

Пост 14-Апр-2012 22:00

[Q] 

UcrusPazzo

Механизмы организма / Механизм тела / The Body Machine -Год выпуска: 2008
Мировая премьера: 30 ноября 2008
Российская премьера: 20 февраля 2010
Производство: Канада, MB Media Productions
Жанр: Документальный
Продолжительность серии: 01:30:50
Перевод: Профессиональный (одноголосый, закадровый)
Субтитры: отсутствуют-Режиссер: Робин Бикнелл / Robin Bicknell
Сценарий: Робин Бикнелл, Laine Drewery
Продюсер: Mary Barroll, Робин Бикнелл, Malcolm Brinkworth
Оператор: Christopher J. Romeike
Композитор: Кристофер Дедрик
Художник: Брайан Райс, Адриан Гринлоу
Монтаж: Burak Ozgan-В ролях: Патрик Корбетт, Michael Scratch, Dakota Roos-Adams, Элла Грант, Брайан Пэтчетт, Шерилл Пеннингтон, Peter Pawana Virgancz, Марио Джозеф Салерно, Kaiman Teevins, Ивэн Даффи-Описание: Мы любим свои машины - они работают за нас: перевозят, доставляют нам удовольствие. С каждым поколением они становятся быстрее, умнее и хитроумнее. Но как мы смотрим на них, так и они смотрят на нас! Потому что нет машины сложнее той, что скрыта под нашей кожей. Мы рассмотрим, как работает человеческий организм. Причем так подробно, как до сих пор это не делал никто... Нам откроется смысл каждой клетки крови, каждого слова, моргания, чиханья и сна, тайная жизнь единственной в своем роде машины - машины тела.-Источник/Качество: HDTVRip
Формат: AVI
Видео кодек: XviD
Аудио кодек: MP3
Видео: 704x400 (1.76:1), 29.970 fps, XviD build 50 ~1763 kbps avg, 0.21 bit/pixel
Аудио: 48 kHz, AC3 Dolby Digital, 2/0 (L,R) ch, ~384 kbps
Общее
Формат : AVI
Формат/Информация : Audio Video Interleave
Размер файла : 1,37 Гбайт
Продолжительность : 1 ч. 30 м.
Общий поток : 2159 Кбит/сек
Программа кодирования : VirtualDubMod 1.5.10.2 (build 2542/release)
Библиотека кодирования : VirtualDubMod build 2542/release
Видео
Идентификатор : 0
Формат : MPEG-4 Visual
Профиль формата : Advanced [email protected]
Параметр BVOP формата : 2
Параметр QPel формата : Нет
Параметр GMC формата : Без точки перехода
Параметр матрицы формата : Выборочная
Идентификатор кодека : XVID
Идентификатор кодека/Подсказка : XviD
Продолжительность : 1 ч. 30 м.
Битрейт : 1764 Кбит/сек
Ширина : 704 пикселя
Высота : 400 пикселей
Соотношение сторон : 16:9
Частота кадров : 29,970 кадров/сек
Цветовое пространство : YUV
Субдискретизация насыщенности : 4:2:0
Битовая глубина : 8 бит
Тип развёртки : Прогрессивная
Метод сжатия : С потерями
Бит/(Пиксели*Кадры) : 0.209
Размер потока : 1,12 Гбайт (82%)
Библиотека кодирования : XviD 1.2.1 (UTC 2008-12-04)
Аудио
Идентификатор : 1
Формат : AC-3
Формат/Информация : Audio Coding 3
Расширение режима : CM (complete main)
Идентификатор кодека : 2000
Продолжительность : 1 ч. 30 м.
Вид битрейта : Постоянный
Битрейт : 384 Кбит/сек
Каналы : 2 канала
Расположение каналов : Front: L R
Частота : 48,0 КГц
Битовая глубина : 16 бит
Метод сжатия : С потерями
Размер потока : 250 Мбайт (18%)
Выравнивание : Разделение по промежуткам
Продолжительность промежутка : 33 мс. (1,00 видеокадр)
Время предзагрузки промежутка : 500 мс.
Download / Скачать

Хотите скачать бесплатно? Зарегистрируйтесь на сайте (ссылка на регистрацию). Pirat.ca - самый быстрый торрент трекер в рунете!

Как скачивать  ·   Что такое торрент  ·   Рейтинг и ограничения



Последний раз редактировалось: UcrusPazzo (2013-05-19 16:51), всего редактировалось 4 раз(а)

Olegkrv

Шкипер

Пост 14-Апр-2012 22:12 (спустя 12 минут)

[Q] 

[Профиль]  [ЛС] 

ivan836

Морской Волк

Пост 15-Апр-2012 09:30 (спустя 11 часов)

[Q] 

[Профиль]  [ЛС] 
Показать сообщения:    
Ответить на тему

Текущее время: Сегодня 10:09

Часовой пояс: GMT + 4



Вы не можете начинать темы
Вы не можете отвечать на сообщения
Вы не можете редактировать свои сообщения
Вы не можете удалять свои сообщения
Вы не можете голосовать в опросах
Вы не можете прикреплять файлы к сообщениям
Вы не можете скачивать файлы

▼ Вниз