ML
     
  Уважаемый Гость!
Вы можете поддержать проект и зарегистрироваться у наших партнеров - онлайн-стратегия MyLands. При регистрации в игре Вы получите код, который сможете активировать после регистрации на pirat.ca и получить 1000 дублонов.

Ваш код:
6f9ab67d502902cc72a06c406977ddb589b7f39d
 
     

Discovery: Мобильная революция. Мобильники, перевернувшие мир / The Cell Phone Revolution (Джули Мерсон / Julie Merson) [2006 г., Документальный, Телепередача, TVRip] MVO

Ответить на тему
 
Автор
Сообщение

Пост 21-Апр-2012 20:41

[Q] 

UcrusPazzo

Discovery: Мобильная революция. Мобильники, перевернувшие мир /
The Cell Phone Revolution
-Год выпуска: 2006
Мировая премьера: 26 December 2006 (USA)
Производство: США, NorthSouth Productions
Жанр: Документальный, Телепередача
Продолжительность серии: 00:45:02
Перевод: Профессиональный (одноголосый, закадровый)
Субтитры: отсутствуют-Режиссер: Джули Мерсон / Julie Merson-В ролях: Rob Haitani, Paul Levinson-Описание: Сотовый телефон очень удобная вещь, маленькая, функциональная, сколько возможностей благодаря нему получил человек. Поразительно, но уже трудно вспомнить, то время, когда мы обходились без мобильного телефона, теперь же наступило такое время, что если забыл на работе или дома столь необходимую вещь, то начинаешь чувствовать себя неуютно, переживать, а вдруг кто-либо важный позвонит, да и как же самому обойтись без возможности связаться с нужным человеком. Да, можно утверждать, что без мобильника мы как без рук. Изобретение сотового телефона изменило жизнь людей на всей планете. Двадцатилетняя борьба между крупной корпорацией и небольшой семейной компанией послужила началом мобильной революции. Благодаря фильму Вы узнаете, где принимались революционные решения, и кто их принимал.
Мобильные телефоны это заслуга американцев, но этого чуда техники могло б и не быть. Мы должны быть благодарны предприимчивым сотрудникам «Мотороллы». Если б они во время не подсуетились, то мобильный телефон так бы и оставался лишь на приборном щитке автомобиля между индикатором уровня масла и магнитолой. Это было б очень выгодным для монополистов «AT&T», но вот «Мотороллу» такой поворот дел не устраивал, и они упорно добивались своего. «AT&T» это как раз и есть крупная корпорация, а «Моторолла» небольшой семейный бизнес. Как выяснилось, в Америке тоже существует очень тягостный бюрократический аппарат. Про взятки, конечно же, не говорится, но чиновникам по неизвестной причине очень не понравилась идея маленького, удобного переносного телефона. В течение десяти лет длилась война, она продолжалась бы и дальше безрезультатно, но была подстроена специальная встреча с главой государства, на которой ему в руки попала мобильная трубка. В Европе и Японии мобильная связь развилась одной из первых. Также в фильме представлены сведения о том, какое противостояние пришлось выдержать компании «Моторолла», про то, как появилось СМС- сообщение, как возникли смартфоны и про многое другое не менее любопытное в области мобильной связи…-Источник/Качество: TVRip
Формат: AVI
Видео кодек: XviD
Аудио кодек: MP3
Видео: 640x416 (1.54:1), 25 fps, XviD build 47 ~953 kbps avg, 0.14 bit/pixel
Аудио: 48 kHz, MPEG Layer 3, 2 ch, ~128.00 kbps avg
Общее
Формат : AVI
Формат/Информация : Audio Video Interleave
Размер файла : 351 Мбайт
Продолжительность : 45 м.
Общий поток : 1089 Кбит/сек
Программа кодирования : VirtualDubMod 1.5.4.1 (build 2178/release)
Библиотека кодирования : VirtualDubMod build 2178/release
Видео
Идентификатор : 0
Формат : MPEG-4 Visual
Профиль формата : Advanced [email protected]
Параметр BVOP формата : 1
Параметр QPel формата : Нет
Параметр GMC формата : Без точки перехода
Параметр матрицы формата : Выборочная
Идентификатор кодека : XVID
Идентификатор кодека/Подсказка : XviD
Продолжительность : 45 м.
Битрейт : 954 Кбит/сек
Ширина : 640 пикселей
Высота : 416 пикселей
Соотношение сторон : 3:2
Частота кадров : 25,000 кадров/сек
Цветовое пространство : YUV
Субдискретизация насыщенности : 4:2:0
Битовая глубина : 8 бит
Тип развёртки : Прогрессивная
Метод сжатия : С потерями
Бит/(Пиксели*Кадры) : 0.143
Размер потока : 307 Мбайт (88%)
Библиотека кодирования : XviD 1.2.0.dev47 (UTC 2006-11-01)
Аудио
Идентификатор : 1
Формат : MPEG Audio
Версия формата : Version 1
Профиль формата : Layer 3
Режим : Joint stereo
Расширение режима : MS Stereo
Идентификатор кодека : 55
Идентификатор кодека/Подсказка : MP3
Продолжительность : 45 м.
Вид битрейта : Постоянный
Битрейт : 128 Кбит/сек
Каналы : 2 канала
Частота : 48,0 КГц
Метод сжатия : С потерями
Размер потока : 41,2 Мбайт (12%)
Выравнивание : Соединение по промежуткам
Продолжительность промежутка : 80 мс. (2,00 видеокадра)
Время предзагрузки промежутка : 504 мс.
Библиотека кодирования : LAME3.97
Настройки программы : -m j -V 4 -q 2 -lowpass 17 -b 128
Download / Скачать

Хотите скачать бесплатно? Зарегистрируйтесь на сайте (ссылка на регистрацию). Pirat.ca - самый быстрый торрент трекер в рунете!

Как скачивать  ·   Что такое торрент  ·   Рейтинг и ограничения

Показать сообщения:    
Ответить на тему

Текущее время: Сегодня 16:26

Часовой пояс: GMT + 4



Вы не можете начинать темы
Вы не можете отвечать на сообщения
Вы не можете редактировать свои сообщения
Вы не можете удалять свои сообщения
Вы не можете голосовать в опросах
Вы не можете прикреплять файлы к сообщениям
Вы не можете скачивать файлы

▼ Вниз