ML
     
  Уважаемый Гость!
Вы можете поддержать проект и зарегистрироваться у наших партнеров - онлайн-стратегия MyLands. При регистрации в игре Вы получите код, который сможете активировать после регистрации на pirat.ca и получить 1000 дублонов.

Ваш код:
193c38d0130f05c24de871678ea3ac181461757d
 
     

Научная нефантастика: Физика невозможного / Sci Fi Science: Physics of the Impossible (Сезон: 1-2 / Серии: 1-24) (Стюарт Роуз / Stuart Rose, Фред Хепберн / Fred Hepburn) [2008-2010 гг., Документальный, научно-популярный, SATRip] MVO

Ответить на тему
 
Автор
Сообщение

Пост 29-Апр-2012 17:28

[Q] 

UcrusPazzo

Научная нефантастика: Физика невозможного /
Sci Fi Science: Physics of the Impossible
-Год выпуска: 2008-2010
Мировая премьера: 26 October 2008 (USA)
Российская премьера: 1 декабря 2009
Производство: США, Workaholic Productions
Жанр: Документальный, научно-популярный
Продолжительность серии: 24 серии ~ по 00:22:00, общее время - 08:48:46
Перевод: Профессиональный (одноголосый, закадровый)
Субтитры: отсутствуют-Режиссер: Стюарт Роуз / Stuart Rose, Фред Хепберн / Fred Hepburn
Продюсер: Фред Хепберн, Стюарт Роуз
Оператор: Майк Ходдер, Адам Варди
Монтаж: Керен Ааронс, Стив Клинч, Уоррен Бакстер-В ролях: Мичио Каку, Zorikh Lequidre, Люк Кроу, Джин Бэрри, Пол Дейвис, Роберт Хазен, Max Tegmark, Лес Тремейн-Описание: Новый ведущий Discovery Science, всемирно известный физик профессор Мичо Кэку, рассказывает о том, что кажется невозможным. В этом увлекательном сериале он использует последние исследования и передовую технологию и рассказывает о том, что стоит за рядом феноменов из мира научной фантастики. Посмотрите, как создать настоящий отражающий щит с использованием результатов новаторских экспериментов и данных теоретической физики, а также как создать настоящий световой меч.-Источник/Качество: SATRip
Формат: AVI
Видео кодек: XviD
Аудио кодек: MP3
Видео 1 сезон: 656x368 (1.78:1), 25 fps, XviD MPEG-4 ~1400 kbps avg, 0.23 bit/pixel
Видео 2 сезон, 1-3 серии: 704x400 (1.76:1), 25 fps, XviD MPEG-4 ~1500 kbps avg, 0.21 bit/pixel
Видео 2 сезон, 4-7, 10-12 серии: 704x384 (1.83:1), 25 fps, XviD build 50 ~1506 kbps avg, 0.22 bit/pixel
Видео 2 сезон, 8, 9 серии: 704x432 (1.63:1), 25 fps, XviD build 50 ~1497 kbps avg, 0.20 bit/pixel
Аудио: 48 kHz, MPEG Layer 3, 2 ch, ~128.00 kbps avg
Сезон 1.
01. Как исследовать Вселенную (How to Explore the Universe). Изучение Вселенной на космическом корабле - не научная фантастика. Мичио Кэку рассказывает, как в будущем мы сможем создать подпространственные двигатели и отправиться к звездам.
02. Как попасть в параллельную Вселенную (How to Travel to a Parallel Universe). Мир безграничных возможностей. Мичио Кэку рассказывает, что параллельные Вселенные научно-фантастических романов могут оказаться вполне реальными.
03. Смерть планеты (Planetbuster / How to Blow Up a Planet). Цель выбрана, выпускается смертельный луч, и планета испаряется. Научная фантастика? Профессор Мичио Кеку показывает на чертежах, как может реально работать звезда смерти.
04. Как телепортироваться (How to Teleport). Телепортация - любимый способ передвижения научных фантастов. Профессор Мичио Кэку рассказывает, как в будущем мы сможем передвигаться по пространству на транспортном луче.
05. Как стать невидимым (How to Become Invisible). Профессор Мичио Кэку представляет чертежи плаща-невидимки и рассказывает о том, что возможность раствориться в воздухе уже не за горами.
06. Как путешествовать во времени (How to Travel Through Time). Профессор Мичио Кэку представляет чертежи машины времени, которая позволит нам отправиться в прошлое и назад в будущее.
07. Как построить космический корабль (How to Build a Starship). Путешествие по галактике - не просто мечта писателя-фантаста. Профессор Мичио Кэку представляет чертежи космического корабля, способного отправиться к звездам.
08. Световой меч (Lightsaber / How to Build a Light Saber). Световой меч - ужасающее оружие. Эта сабля из чистого света может прорезать любой материал. Профессор Мичио Кеку рассказывает, как в будущем мы сможем создать такое оружие.
09. Роботы (Robots / How to Build a Sci Fi Robot). "Терминатор" или "Звездные войны" - ни один н/ф фильм не обходится без умного робота! Мичио Кеку рассказывает, как разумные работы могут стать угрозой для человека.
10. Суперкостюмы / Как стать супергероем (Super Suits / How to Become a Superhero). Используя последние исследования и теоретическую физику, профессор Мичио Кэку представляет чертежи настоящих суперкостюмов.
11. Как построить летающую тарелку (How to Build a Flying Saucer). Используя последние исследования и теоретическую физику, профессор Мичио Кэку рассказывает, как в один прекрасный день мы начнем передвигаться на любимом транспорте инопланетян.
12. Защитные поля (Force Fields / How to Build a Force Field). Космические корабли нуждаются в защите от астероидов и врагов. Профессор Мичио Кеку рассказывает, как последние открытия помогут создать защитные поля для космических кораблей.
Сезон 2.
01. Земля 2.0 (Earth 2.0). Летающие в облаках города, огромные солнечные зеркала и защита от астероидов - вот несколько невероятных блестящих проектов Митио Каку., который собирается создать Землю 2.0
02. Колонизировать галактику (Galactic Colonization). Роботы прочесывают галактику в поисках обитаемых планет, ДНК человека раскодирована и передается двоичным кодом на сотни световых лет. Это план покорения галактики профессора Кеку.
03. Смертельный удар (Deep Impact). 90% летающих по космосу камней достаточно массивны, чтобы уничтожить нашу цивилизацию. Вопрос только в том, когда это произойдет. Профессор Каку должен спасти Землю
04. Солнечная система (Solar system). Это самый смелый план Митио Каку - создание новой солнечной системы, гигантской сферы вокруг звезды и новой звездной цивилизации внутри этой сферы.
05. Нападение (Invasion). Пришельцы на пороге! Об этом многие фантастические фильмы. Но что мы будем делать, если пришельцы действительно нападут? Земляне должны подготовиться - у профессора Каку есть план.
06. Первый контакт (First Contact). Во Вселенной столько планет, сколько песчинок на Земле, так что встреча с пришельцами - только дело времени. Мичио Каку рассказывает о первом контакте.
07. Уничтожить Звезды Смерти (Destroy The Death Star). Профессор Мичио Каку рассказывает о физике самой популярной научно-фантастической сцены и разрабатывает космический корабль, способный уничтожить Зловещую звезду размером с Луну.
08. Чёрные дыры (Black Holes). В научной фантастике самые разрушительные силы Вселенной также помогают добраться до уникальных мест. Профессор Каку рассказывает, как путешествовать сквозь черные дыры и выжить.
09. Армия Киборгов (Cyborg Army). Представьте себе мир, которым управляют машины и где не осталось места человеку. Это не фантастика: машины будут умнее нас. Профессор Каку составляет план по спасению людей.
10. Роботы (Robots). Научная фантастика полна страшных машин, способных победить любого противника. Сможем ли мы когда-нибудь создать армию киборгов?
11. 3D технология (3D technology). Профессор Мичио Каку считает, что мы можем создать Холодек из фильма "Star Trek". Посмотрите, как он создает неотличимый от настоящего выдуманный мир.
12. Трансформеры (Transformers). В фильмах говорится, что нас окружают роботы, загримированные под автомобили. Что позволяет машине двигаться, как человек? Профессор Мичио Каку пытается создать трансформера.
Общее
Формат : AVI
Формат/Информация : Audio Video Interleave
Размер файла : 244 Мбайт
Продолжительность : 22 м.
Общий поток : 1539 Кбит/сек
Программа кодирования : VirtualDubMod 1.5.10.2 (build 2542/release)
Библиотека кодирования : VirtualDubMod build 2542/release
Видео
Идентификатор : 0
Формат : MPEG-4 Visual
Профиль формата : Advanced [email protected]
Параметр BVOP формата : 2
Параметр QPel формата : Нет
Параметр GMC формата : Без точки перехода
Параметр матрицы формата : Default (H.263)
Режим смешивания : Сжатый битовый поток
Идентификатор кодека : XVID
Идентификатор кодека/Подсказка : XviD
Продолжительность : 22 м.
Битрейт : 1401 Кбит/сек
Ширина : 656 пикселей
Высота : 368 пикселей
Соотношение сторон : 5:4
Соотношение сторон в оригинале : 16:9
Частота кадров : 25,000 кадров/сек
Цветовое пространство : YUV
Субдискретизация насыщенности : 4:2:0
Битовая глубина : 8 бит
Тип развёртки : Прогрессивная
Метод сжатия : С потерями
Бит/(Пиксели*Кадры) : 0.232
Размер потока : 222 Мбайт (91%)
Библиотека кодирования : XviD 1.2.1 (UTC 2008-12-04)
Аудио
Идентификатор : 1
Формат : MPEG Audio
Версия формата : Version 1
Профиль формата : Layer 3
Режим : Joint stereo
Расширение режима : MS Stereo
Идентификатор кодека : 55
Идентификатор кодека/Подсказка : MP3
Продолжительность : 22 м.
Вид битрейта : Постоянный
Битрейт : 128 Кбит/сек
Каналы : 2 канала
Частота : 48,0 КГц
Метод сжатия : С потерями
Размер потока : 20,3 Мбайт (8%)
Выравнивание : Соединение по промежуткам
Продолжительность промежутка : 40 мс. (1,00 видеокадр)
Время предзагрузки промежутка : 504 мс.
Библиотека кодирования : LAME3.98 (alpha)
Общее
Формат : AVI
Формат/Информация : Audio Video Interleave
Размер файла : 260 Мбайт
Продолжительность : 22 м.
Общий поток : 1639 Кбит/сек
Программа кодирования : VirtualDubMod 1.5.10.2 (build 2542/release)
Библиотека кодирования : VirtualDubMod build 2542/release
Видео
Идентификатор : 0
Формат : MPEG-4 Visual
Профиль формата : Advanced [email protected]
Параметр BVOP формата : 2
Параметр QPel формата : Нет
Параметр GMC формата : Без точки перехода
Параметр матрицы формата : Default (H.263)
Режим смешивания : Сжатый битовый поток
Идентификатор кодека : XVID
Идентификатор кодека/Подсказка : XviD
Продолжительность : 22 м.
Битрейт : 1501 Кбит/сек
Ширина : 704 пикселя
Высота : 400 пикселей
Соотношение сторон : 5:4
Соотношение сторон в оригинале : 16:9
Частота кадров : 25,000 кадров/сек
Цветовое пространство : YUV
Субдискретизация насыщенности : 4:2:0
Битовая глубина : 8 бит
Тип развёртки : Прогрессивная
Метод сжатия : С потерями
Бит/(Пиксели*Кадры) : 0.213
Размер потока : 238 Мбайт (92%)
Библиотека кодирования : XviD 1.2.1 (UTC 2008-12-04)
Аудио
Идентификатор : 1
Формат : MPEG Audio
Версия формата : Version 1
Профиль формата : Layer 3
Режим : Joint stereo
Расширение режима : MS Stereo
Идентификатор кодека : 55
Идентификатор кодека/Подсказка : MP3
Продолжительность : 22 м.
Вид битрейта : Постоянный
Битрейт : 128 Кбит/сек
Каналы : 2 канала
Частота : 48,0 КГц
Метод сжатия : С потерями
Размер потока : 20,3 Мбайт (8%)
Выравнивание : Соединение по промежуткам
Продолжительность промежутка : 40 мс. (1,00 видеокадр)
Время предзагрузки промежутка : 504 мс.
Общее
Формат : AVI
Формат/Информация : Audio Video Interleave
Размер файла : 260 Мбайт
Продолжительность : 22 м.
Общий поток : 1641 Кбит/сек
Видео
Идентификатор : 0
Формат : MPEG-4 Visual
Профиль формата : Advanced [email protected]
Параметр BVOP формата : Нет
Параметр QPel формата : Нет
Параметр GMC формата : Без точки перехода
Параметр матрицы формата : Default (H.263)
Идентификатор кодека : XVID
Идентификатор кодека/Подсказка : XviD
Продолжительность : 22 м.
Битрейт : 1506 Кбит/сек
Ширина : 704 пикселя
Высота : 384 пикселя
Соотношение сторон : 1,85:1
Частота кадров : 25,000 кадров/сек
Цветовое пространство : YUV
Субдискретизация насыщенности : 4:2:0
Битовая глубина : 8 бит
Тип развёртки : Прогрессивная
Метод сжатия : С потерями
Бит/(Пиксели*Кадры) : 0.223
Размер потока : 238 Мбайт (92%)
Библиотека кодирования : XviD 1.2.1 (UTC 2008-12-04)
Аудио
Идентификатор : 1
Формат : MPEG Audio
Версия формата : Version 1
Профиль формата : Layer 3
Идентификатор кодека : 55
Идентификатор кодека/Подсказка : MP3
Продолжительность : 22 м.
Вид битрейта : Постоянный
Битрейт : 128 Кбит/сек
Каналы : 2 канала
Частота : 44,1 КГц
Метод сжатия : С потерями
Размер потока : 20,3 Мбайт (8%)
Выравнивание : Разделение по промежуткам
Продолжительность промежутка : 80 мс. (2,00 видеокадра)
Общее
Формат : AVI
Формат/Информация : Audio Video Interleave
Размер файла : 258 Мбайт
Продолжительность : 22 м.
Общий поток : 1632 Кбит/сек
Видео
Идентификатор : 0
Формат : MPEG-4 Visual
Профиль формата : Advanced [email protected]
Параметр BVOP формата : Нет
Параметр QPel формата : Нет
Параметр GMC формата : Без точки перехода
Параметр матрицы формата : Default (H.263)
Идентификатор кодека : XVID
Идентификатор кодека/Подсказка : XviD
Продолжительность : 22 м.
Битрейт : 1497 Кбит/сек
Ширина : 704 пикселя
Высота : 432 пикселя
Соотношение сторон : 1,630
Частота кадров : 25,000 кадров/сек
Цветовое пространство : YUV
Субдискретизация насыщенности : 4:2:0
Битовая глубина : 8 бит
Тип развёртки : Прогрессивная
Метод сжатия : С потерями
Бит/(Пиксели*Кадры) : 0.197
Размер потока : 236 Мбайт (92%)
Библиотека кодирования : XviD 1.2.1 (UTC 2008-12-04)
Аудио
Идентификатор : 1
Формат : MPEG Audio
Версия формата : Version 1
Профиль формата : Layer 3
Идентификатор кодека : 55
Идентификатор кодека/Подсказка : MP3
Продолжительность : 22 м.
Вид битрейта : Постоянный
Битрейт : 128 Кбит/сек
Каналы : 2 канала
Частота : 44,1 КГц
Метод сжатия : С потерями
Размер потока : 20,2 Мбайт (8%)
Выравнивание : Разделение по промежуткам
Продолжительность промежутка : 80 мс. (2,00 видеокадра)
Download / Скачать

Хотите скачать бесплатно? Зарегистрируйтесь на сайте (ссылка на регистрацию). Pirat.ca - самый быстрый торрент трекер в рунете!

Как скачивать  ·   Что такое торрент  ·   Рейтинг и ограничения



Последний раз редактировалось: UcrusPazzo (2013-04-08 17:13), всего редактировалось 1 раз

olipov

Легенда

Пост 08-Апр-2013 15:54 (спустя 11 месяцев 8 дней)

[Q] 

[Профиль]  [ЛС] 
Показать сообщения:    
Ответить на тему

Текущее время: Сегодня 18:07

Часовой пояс: GMT + 4



Вы не можете начинать темы
Вы не можете отвечать на сообщения
Вы не можете редактировать свои сообщения
Вы не можете удалять свои сообщения
Вы не можете голосовать в опросах
Вы не можете прикреплять файлы к сообщениям
Вы не можете скачивать файлы

▼ Вниз