ML
     
  Уважаемый Гость!
Вы можете поддержать проект и зарегистрироваться у наших партнеров - онлайн-стратегия MyLands. При регистрации в игре Вы получите код, который сможете активировать после регистрации на pirat.ca и получить 1000 дублонов.

Ваш код:
73640f24f8a0f579e128ea7346fd2db2b1009143
 
     

Как устроена Вселенная? / How the Universe works? (Сезон: 1 / Серии: 1-8) (Торн Тоунэнд, Джон Форд / Thorne Tounend, John Ford) [2010 г., Научно-популярный, DVDRip, 480p] MVO

Ответить на тему
 
Автор
Сообщение

Пост 07-Июн-2012 20:03

[Q] 

patriarchurza

Штурман

Как устроена Вселенная? / How the Universe works?
(Сезон: 1 / Серии: 1-8)
Год выпуска: 2010
Производство: США, Канада, Discovery Science
Жанр: Научно-популярный
Продолжительность серии: 00:44:00
Перевод: Профессиональный (одноголосый, закадровый)
Субтитры: отсутствуют
Режиссер: Торн Тоунэнд, Джон Форд / Thorne Tounend, John Ford
Описание: Это история о создании всего в этом мире. Программа исследует, как Вселенная возникла из ничего, и как она выросла с точки незначительно меньше, чем атомные частицы, для огромного космоса.
Серия 1. Большой взрыв / Big Bang. Как из ничего возникла наша Вселенная? Вы узнаете, как она разрослась из крошечной точки меньше атомной частицы до сегодняшнего безграничного космоса.
Серия 2. Чёрные дыры / Blaсk Holes. Черные дыры - самые мощные машины уничтожения во Вселенной и самая большая ее загадка. Современная астрономия доказывает, что они могут влиять на все, что мы видим.
Серия 3. Галактики / Alien Galaxies. Познакомьтесь с эволюцией галактик от облаков холодного газа, витавшего в вакууме 13 миллиардов лет назад, до великолепных спиралей, за которыми можно наблюдать ночью.
Серия 4. Звёзды / Extreme Stars. Посмотрите, как во Вселенной возникли звезды, как они, в свою очередь, породили новые поколения звезд и планет, как появились основные элементы, из которых зародилась жизнь.
Серия 5. Суперновые звезды / Supernovas. Жизнь возникла в результате невероятно обширных взрывов сверхновых звезд, которые разбросали по Вселенной элементы из центра звезд. Что они могут рассказать о нашем прошлом?
Серия 6. Планеты / Extreme Planets. Познакомьтесь со странными планетами, которые населяют нашу Вселенную - от гигантских шаров пылающего газа до ледяных сирот межзвездного пространства.
Серия 7. Солнечные системы / Solar Systems. С момента открытия первой вращающейся вокруг звезды планеты было обнаружено около 280 солнечных систем. Отправляйтесь за пределы нашей Солнечной системы на познание Вселенной.
Серия 8. Луны / Alien Moons. Правда ли, что жизнь вероятнее всего найти на лунах? В нашей Солнечной системе 300 лун, которые могут рассказать о бурном прошлом Земли.
IMDB КиноПоиск
Источник/Качество: DVDRip
Формат: MPEG
Стандарт разрешения: 480p
Видео кодек: MPEG2
Аудио кодек: AC3
Видео: MPEG2 Video 720x576 (4:3) 25fps 9400kbps [Video]
Аудио: Dolby AC3 48000Hz stereo 256kbps [AC-3]
Общее
Полное имя : C:\Users\Andrey\Videos\Как устроена Вселенная\How.The.Universe.Works.s01e01.rus.[pirat.ca].mpg
Формат : MPEG-PS
Размер файла : 1,18 Гбайт
Продолжительность : 43 м.
Режим общего битрейта : Переменный
Общий поток : 3850 Кбит/сек
Библиотека кодирования : (c) 1998-2008 Womble Multimedia, Inc. / MPEG Video Wizard (08/2008) / Dec 31 2008
Видео
Идентификатор : 224 (0xE0)
Формат : MPEG Video
Версия формата : Version 2
Профиль формата : [email protected]
Параметр BVOP формата : Да
Параметр матрицы формата : Выборочная
Параметр GOP формата : M=3, N=12
Продолжительность : 43 м.
Вид битрейта : Переменный
Битрейт : 3517 Кбит/сек
Максимальный битрейт : 9400 Кбит/сек
Ширина : 720 пикселей
Высота : 576 пикселей
Соотношение сторон : 4:3
Частота кадров : 25,000 кадров/сек
Стандарт вещания : PAL
Цветовое пространство : YUV
Субдискретизация насыщенности : 4:2:0
Битовая глубина : 8 бит
Тип развёртки : Прогрессивная
Порядок развёртки : Верхнее поле первое
Метод сжатия : С потерями
Бит/(Пиксели*Кадры) : 0.339
Размер потока : 1,08 Гбайт (91%)
Библиотека кодирования : (c) 1998-2008 Womble Multimedia, Inc. / MPEG Video Wizard (08/2008) / Dec 31 2008
Основные цвета : BT.470-2 System B, BT.470-2 System G
Характеристики трансфера : BT.470-2 System B, BT.470-2 System G
Коэффициенты матрицы : BT.470-2 System B, BT.470-2 System G
Аудио
Идентификатор : 189 (0xBD)-128 (0x80)
Формат : AC-3
Формат/Информация : Audio Coding 3
Расширение режима : CM (complete main)
Параметр Endianness формата : Big
Режим смешивания : DVD-Video
Продолжительность : 43 м.
Вид битрейта : Постоянный
Битрейт : 256 Кбит/сек
Каналы : 2 канала
Расположение каналов : Front: L R
Частота : 48,0 КГц
Битовая глубина : 16 бит
Метод сжатия : С потерями
Задержка видео : -80 мс.
Размер потока : 80,3 Мбайт (7%)
Download / Скачать

Хотите скачать бесплатно? Зарегистрируйтесь на сайте (ссылка на регистрацию). Pirat.ca - самый быстрый торрент трекер в рунете!

Как скачивать  ·   Что такое торрент  ·   Рейтинг и ограничения

sedun

Шкипер

Пост 18-Июн-2012 18:24 (спустя 10 дней)

[Q] 

Люблю такие сериалы :)
[Профиль]  [ЛС] 

tommek

Морской Волк

231

Пост 30-Сен-2012 22:19 (спустя 3 месяца 12 дней)

[Q] 

увлекательно и позновательно

_________________
[Профиль]  [ЛС] 
Показать сообщения:    
Ответить на тему

Текущее время: Сегодня 22:35

Часовой пояс: GMT + 4



Вы не можете начинать темы
Вы не можете отвечать на сообщения
Вы не можете редактировать свои сообщения
Вы не можете удалять свои сообщения
Вы не можете голосовать в опросах
Вы не можете прикреплять файлы к сообщениям
Вы не можете скачивать файлы

▼ Вниз