ML
     
  Уважаемый Гость!
Вы можете поддержать проект и зарегистрироваться у наших партнеров - онлайн-стратегия MyLands. При регистрации в игре Вы получите код, который сможете активировать после регистрации на pirat.ca и получить 1000 дублонов.

Ваш код:
6f9ab67d502902cc72a06c406977ddb589b7f39d
 
     

Секс в каменном веке / Sex in the stone age (National Geographic Channel) [2011 г., документальный, история, исследование, SATRip] Dub

Ответить на тему
 
Автор
Сообщение

Пост 01-Авг-2012 11:52

[Q] 

me14

-Секс в каменном веке / Sex in the stone age-- Производство: США
Жанр: документальный, история, исследование
Год выпуска: 2011 г.
Продолжительность: 00:44:56
Перевод: Профессиональный (полное дублирование)
Режиссер: National Geographic Channel-Описание: Секс свыше 40 тыс. лет назад, но кто спал с кем? Завораживающее открытие - свидетельство совершенно новой разновидности людей открыло новый, доселе неведанный вид человека, перевернув в нашем понимании первобытного человека, открыв провокационную тайну о нашем прошлом.-
Качество видео: SATRip
Формат видео: AVI
Видео кодек: XviD
Аудио кодек: MP3
Видео: 720x400, 25 fps, XviD MPEG-4 , 1 771 kbps
Аудио: 48 kHz, MPEG Layer 3, 2 ch, ~128.00 kbps avg
Cубтитры: отсутствуют-
Формат : AVI
Формат/Информация : Audio Video Interleave
Размер файла : 17.1 MiB
Продолжительность : 1mn 15s
Общий поток : 1 910 Kbps
Программа кодирования : VirtualDubMod 1.5.10.2 (build 2540/release)
Библиотека кодирования : VirtualDub build 29808/release
Video
Идентификатор : 0
Формат : MPEG-4 Visual
Профиль формата : Advanced [email protected]
Параметр BVOP формата : 2
Параметр QPel формата : No
Параметр GMC формата : No warppoints
Параметр матрицы формата : Default (H.263)
Режим смешивания : Packed bitstream
Идентификатор кодека : XVID
Идентификатор кодека/Подсказка : XviD
Продолжительность : 1mn 15s
Битрейт : 1 771 Kbps
Ширина : 720 pixels
Высота : 400 pixels
Соотношение сторон : 16:9
Частота кадров : 25.000 fps
Цветовое пространство : YUV
Подвыборка цветности : 4:2:0
Битовая глубина : 8 bits
Тип развёртки : Progressive
Метод сжатия : Lossy
Бит/(Пиксели*Кадры) : 0.246
Размер потока : 15.9 MiB (93%)
Библиотека кодирования : XviD 64
Audio
Идентификатор : 1
Формат : MPEG Audio
Версия формата : Version 1
Профиль формата : Layer 3
Режим : Joint stereo
Расширение режима : MS Stereo
Идентификатор кодека : 55
Идентификатор кодека/Подсказка : MP3
Продолжительность : 1mn 15s
Вид битрейта : Constant
Битрейт : 128 Kbps
Канал(ы) : 2 channels
Частота : 48.0 KHz
Метод сжатия : Lossy
Размер потока : 1.15 MiB (7%)
Выравнивание : Aligned on interleaves
Продолжительность промежутка : 40 ms (1.01 video frame)
Время предзагрузки промежутка : 504 ms





Download / Скачать

Хотите скачать бесплатно? Зарегистрируйтесь на сайте (ссылка на регистрацию). Pirat.ca - самый быстрый торрент трекер в рунете!

Как скачивать  ·   Что такое торрент  ·   Рейтинг и ограничения

Rogervik

Штурман

Пост 01-Авг-2012 15:10 (спустя 3 часа)

[Q] 

в названии файла нужно удалить нижнее подчеркивание после avi
[Профиль]  [ЛС] 

lis777

Корсар

Пост 01-Авг-2012 19:17 (спустя 4 часа)

[Q] 

[Профиль]  [ЛС] 

krasavchik34

Пост 19-Авг-2012 13:10 (спустя 17 дней)

[Q] 

ag интересно что же они там делали! спасибо.
[Профиль]  [ЛС] 

me14 ®

999

Пост 18-Июл-2013 12:12 (спустя 10 месяцев 29 дней)

[Q] 

да всё тоже что и мы,ничего почти не изменилось
токо извращения и всёлишь ad

_________________
Если вы все еще не забанены - это не ваша заслуга, а модераторская недоработка.
[Профиль]  [ЛС] 
Показать сообщения:    
Ответить на тему

Текущее время: Сегодня 16:32

Часовой пояс: GMT + 4



Вы не можете начинать темы
Вы не можете отвечать на сообщения
Вы не можете редактировать свои сообщения
Вы не можете удалять свои сообщения
Вы не можете голосовать в опросах
Вы не можете прикреплять файлы к сообщениям
Вы не можете скачивать файлы

▼ Вниз