ML
     
  Уважаемый Гость!
Вы можете поддержать проект и зарегистрироваться у наших партнеров - онлайн-стратегия MyLands. При регистрации в игре Вы получите код, который сможете активировать после регистрации на pirat.ca и получить 1000 дублонов.

Ваш код:
e6008d9811a0b6a1393c3dc51ecd7bc35637bc21
 
     

Супер трава марихуана / Inside Marijuana [2009 г., Документальный, HDTVRip] VO

Ответить на тему
 
Автор
Сообщение

Пост 30-Авг-2012 20:02

[Q] 

leha1975

Гроза морей

-Супер трава марихуана / Inside Marijuana-- Производство: США
Жанр: Документальный
Год выпуска: 2009 г.
Продолжительность: 00:48:34
Перевод: Профессиональный (одноголосый, закадровый)-Описание: Марихуана-запрещена в большинстве стран всего мира, но не смотря на это, она является одним из самых широко употребляемых наркотиков, многие называют её супер трава.Для учёных она представляет свой интерес, они то-же называют её супер травой, но совершенно в ином смысле.-Качество видео: HDTVRip
Формат видео: AVI
Видео кодек: XviD
Аудио кодек: AC3
Видео: 720x400 (1.80:1), 25 fps, XviD build 50 ~1499 kbps avg, 0.21 bit/pixel
Аудио: 48 kHz, AC-3, 2 ch, ~192.00 kbps avg
Cубтитры: отсутствуют
F:\pirat.ca\раздачи-3\Супер трава марихуана.avi
General
Complete name : F:\pirat.ca\раздачи-3\Супер трава марихуана.avi
Format : AVI
Format/Info : Audio Video Interleave
File size : 592 MiB
Duration : 48mn 34s
Overall bit rate : 1 703 Kbps
Writing application : Lavf53.9.0
Video #0
ID : 0
Format : MPEG-4 Visual
Format profile : Advanced [email protected]
Format settings, BVOP : 2
Format settings, QPel : No
Format settings, GMC : No warppoints
Format settings, Matrix : Default (H.263)
Muxing mode : Packed bitstream
Codec ID : XVID
Codec ID/Hint : XviD
Duration : 48mn 34s
Bit rate : 1 500 Kbps
Width : 720 pixels
Height : 400 pixels
Display aspect ratio : 16:9
Frame rate : 25.000 fps
Color space : YUV
Chroma subsampling : 4:2:0
Bit depth : 8 bits
Scan type : Progressive
Compression mode : Lossy
Bits/(Pixel*Frame) : 0.208
Stream size : 521 MiB (88%)
Writing library : XviD 1.2.1 (UTC 2008-12-04)
Audio #1
ID : 1
Format : AC-3
Format/Info : Audio Coding 3
Mode extension : CM (complete main)
Codec ID : 2000
Duration : 48mn 34s
Bit rate mode : Constant
Bit rate : 192 Kbps
Channel(s) : 2 channels
Channel positions : Front: L R
Sampling rate : 48.0 KHz
Bit depth : 16 bits
Compression mode : Lossy
Stream size : 66.7 MiB (11%)
Alignment : Aligned on interleaves
Interleave, duration : 32 ms (0.80 video frame)
Download / Скачать

Хотите скачать бесплатно? Зарегистрируйтесь на сайте (ссылка на регистрацию). Pirat.ca - самый быстрый торрент трекер в рунете!

Как скачивать  ·   Что такое торрент  ·   Рейтинг и ограничения

zpSaid

123

Пост 31-Авг-2012 10:35 (спустя 14 часов)

[Q] 

Для учёных она представляет свой интерес, они то-же называют её супер травой, но совершенно в ином смысле.
Конопля (марихуана) отпугивает насекомых!
К примеру если вокруг поля с картошкой растет сплошная полоса конопли (хотя бы в метр шириной), - на картошке не будет колорадских жуков!!! (опрыскивать ядами или собирать жуков не понадобиться!
А вот против нариков и дельцов придется держать военную охрану и пятиметровый забор под напряжением! (как в фильме «Парк Юрского периода»)

_________________
Джавдет трус! Абдула воин!
[Профиль]  [ЛС] 

Дядя Витя

53912

Пост 31-Авг-2012 23:12 (спустя 12 часов)

[Q] 

Травка - это

_________________
?
[Профиль]  [ЛС] 
Показать сообщения:    
Ответить на тему

Текущее время: Сегодня 02:00

Часовой пояс: GMT + 4



Вы не можете начинать темы
Вы не можете отвечать на сообщения
Вы не можете редактировать свои сообщения
Вы не можете удалять свои сообщения
Вы не можете голосовать в опросах
Вы не можете прикреплять файлы к сообщениям
Вы не можете скачивать файлы

▼ Вниз