ML
     
  Уважаемый Гость!
Вы можете поддержать проект и зарегистрироваться у наших партнеров - онлайн-стратегия MyLands. При регистрации в игре Вы получите код, который сможете активировать после регистрации на pirat.ca и получить 1000 дублонов.

Ваш код:
4fbd9898b6f10799a3e8edf60f31febd2bc15453
 
     

National Geographic: Американский порт / Ameriсa's Port (1 сезон: 6 серий из 9) (Том Бирс / Thom Beers) [2008 г., Документальный, SATRip] (VO)

Ответить на тему
 
Автор
Сообщение

Пост 12-Дек-2011 00:06

[Q] 

UcrusPazzo

National Geographic: Американский порт / Ameriсa's Port -Год выпуска: 2008
Мировая премьера: 24 апреля 2008
Производство: США, National Geographic Channel, Original Productions
Жанр: Документальный
Продолжительность: 6 серий ~ по 00:44:00, общее время - 04:21:26
Перевод: Профессиональный (одноголосый)
Оригинальный аудиопоток: Отсутствует-Режиссер: Том Бирс / Thom Beers
Продюсер: Howard B. Swartz, Cheryl Herring, Jim Dugan, Roger Roddy, Steven Robillard
Оператор: Брайан Адамс, Justin Spina, Don Bland
Композитор: Andy Kubiszewski-В ролях: Том Бирс / Thom Beers-Описание: Программа "Американский порт" приглашает в Лос-Анджелес, Калифорния, где находится один из самых загруженных портов США. Зрителю предоставится возможность взглянуть на сложнейшее оборудование и людей, которые обеспечивают работу эту гигантского транспортного узла. Территория порта составляет 170 гектаров, где трудится 16000 человек. Здесь есть даже собственная полиция и пожарная охрана!-Серия 1. Пропавший без вести / Missing Man. Главный шкипер порта доводит до причала грузовое судно с поврежденным двигателем. Команда спасателей порта начинает подводные поиски пропавшего мужчины.
Серия 2. Бомбовый удар / Bomb Sweep. Полиция порта проводит антитеррористическую операцию в ходе подготовки к прибытию "Королевы Виктории". Таможенники и пограничники проверяют контейнер из Панамы.
Серия 3 (нет в наличии). Преступление на воде / СSI on the Water. Гость программы - бывший президент США Джимми Картер. Полиция порта расследует изнасилование. Крановщик должен завершить работу в срок.
Серия 4. Игра на 15 миллионов долларов / 15 Million Dollar Gamble. На борту корабля находится кран, и провести судно под мостом не так-то просто. Пограничники и полиция обнаруживают яхту, которая ведет себя подозрительно.
Серия 5 (нет в наличии). Украденная взрывчатка / Stolen Explosions. После неожиданной проверки пограничников фруктовый терминал порта начинает отставать от графика. В порту проводится учебная эвакуация.
Серия 6. Бомба / Bomb Scare. Первая женщина-капитан круизного судна борется со штормовой погодой. В круизном терминале проводится срочная эвакуация.
Серия 7. В гавани час пик / Rush Hour in the Harbor. Терминалу приходится обслуживать запоздавший корабль, а тут еще и краны сломались. Шкипера заняты утренней проводкой судов.
Серия 8. Черный рынок / Blaсk Market Bust. Центр по спасению млекопитающих вместе с пограничниками ведет работу по спасению морских львов. Капитан Рубино чуть было не столкнулся с рыболовецким судном.
Серия 9 (нет в наличии). Counterfeit Merchandise Exposed-Источник/Качество: SATRip
Формат: AVI
Видео кодек: XviD
Аудио кодек: MP3
Видео: 704x400 (1.76:1), 25 fps, XviD MPEG-4 ~1500 kbps avg, 0.21 bit/pixel (все серии одинаковы по техническим данным)
Аудио: 48 kHz, MPEG Layer 3, 2 ch, ~128.00 kbps avg
Субтитры: нет
Общее
Формат : AVI
Формат/Информация : Audio Video Interleave
Размер файла : 516 Мбайт
Продолжительность : 43 м.
Общий поток : 1639 Кбит/сек
Программа кодирования : VirtualDubMod 1.5.10.2 (build 2542/release)
Библиотека кодирования : VirtualDubMod build 2542/release
Видео
Идентификатор : 0
Формат : MPEG-4 Visual
Профиль формата : Advanced [email protected]
Параметр BVOP формата : 2
Параметр QPel формата : Нет
Параметр GMC формата : Без точки перехода
Параметр матрицы формата : Default (H.263)
Режим смешивания : Сжатый битовый поток
Идентификатор кодека : XVID
Идентификатор кодека/Подсказка : XviD
Продолжительность : 43 м.
Битрейт : 1501 Кбит/сек
Ширина : 704 пикселя
Высота : 400 пикселей
Соотношение сторон : 16:9
Частота кадров : 25,000 кадров/сек
Цветовое пространство : YUV
Субдискретизация насыщенности : 4:2:0
Битовая глубина : 8 бит
Тип развёртки : Прогрессивная
Метод сжатия : С потерями
Бит/(Пиксели*Кадры) : 0.213
Размер потока : 472 Мбайт (92%)
Библиотека кодирования : XviD 1.2.1 (UTC 2008-12-04)
Аудио
Идентификатор : 1
Формат : MPEG Audio
Версия формата : Version 1
Профиль формата : Layer 3
Режим : Joint stereo
Расширение режима : MS Stereo
Идентификатор кодека : 55
Идентификатор кодека/Подсказка : MP3
Продолжительность : 43 м.
Вид битрейта : Постоянный
Битрейт : 128 Кбит/сек
Каналы : 2 канала
Частота : 48,0 КГц
Метод сжатия : С потерями
Размер потока : 40,3 Мбайт (8%)
Выравнивание : Соединение по промежуткам
Продолжительность промежутка : 40 мс. (1,00 видеокадр)
Время предзагрузки промежутка : 504 мс.
Download / Скачать

Хотите скачать бесплатно? Зарегистрируйтесь на сайте (ссылка на регистрацию). Pirat.ca - самый быстрый торрент трекер в рунете!

Как скачивать  ·   Что такое торрент  ·   Рейтинг и ограничения

Показать сообщения:    
Ответить на тему

Текущее время: Сегодня 19:57

Часовой пояс: GMT + 4



Вы не можете начинать темы
Вы не можете отвечать на сообщения
Вы не можете редактировать свои сообщения
Вы не можете удалять свои сообщения
Вы не можете голосовать в опросах
Вы не можете прикреплять файлы к сообщениям
Вы не можете скачивать файлы

▼ Вниз