ML
     
  Уважаемый Гость!
Вы можете поддержать проект и зарегистрироваться у наших партнеров - онлайн-стратегия MyLands. При регистрации в игре Вы получите код, который сможете активировать после регистрации на pirat.ca и получить 1000 дублонов.

Ваш код:
c89b4b6523eaac3173e9a9c062ac1a19db575961
 
     

National Geographic: В ожидании конца света / Doomsday Preppers (Сезон: 1, Серии: 1-13 из 13) (Алан Мэдисон / Alan Madison) [2011-2012 г., Реальное ТВ, документальный, познавательный, социология, исследование, апокалипсис, SATRip] VO

Ответить на тему
 
Автор
Сообщение

Пост 27-Сен-2012 20:06

[Q] 

UcrusPazzo

В ожидании конца света / Doomsday Preppers«Вы готовы?» -Производство: США, National Geographic, Sharp Entertainment LLC
Жанр: Реальное ТВ, документальный, познавательный, социология, исследование, апокалипсис
Год выпуска: 2011-2012 г.
Продолжительность: 13 серии по 00:45:00, общее время - 09:44:42
Мировая премьера: 27 июня 2011
Российская премьера: 12 сентября 2012
Перевод: Профессиональный (одноголосый, закадровый)
Режиссер: Алан Мэдисон / Alan Madison
Разказчик: Майкл Изкуэрдо / Michael Izquierdo-В ролях: Майкл Изкуэрдо, Скот Хант, Brent Royal II, Кристин Хобсон-Описание: Нарастающее напряжение от приближения пугающей даты 2012 знакомо многим. Момент настал. Землетрясение, финансовый крах, техногенная или антропогенная катастрофа — каждый представляет конец света по-своему.
Герои сериала — это самые разные люди: мужчины и женщины, молодые и пожилые; они живут обычной жизнью и работают так же, как все. Их объединяет лишь жгучее желание быть во всеоружии, когда наступит мировая катастрофа, привычные удобства станут недоступны, а хаос и жестокость превратятся в повседневную реальность. Отец, обучающий детей особым навыкам выживания. Семья, сделавшая запасы 23 000 кг еды и 14 000 литров дождевой воды. Фермер, соорудивший центр связи, функционирующий без электричества…
Борцы за выживание или параноики? И есть ли здравый смысл во всех этих приготовлениях? Эксперты организации «Practical Preppers», состоящей из старожилов течения борьбы за выживание, анализируют шансы на спасение каждого из героев сериала.
Список серий:
00 - Пилотная серия [текст читает Денис Некрасов]
01 - Пули, много пуль [текст читает Александр Гаврилин]
02 - Надеюсь, я сумасшедший [текст читает Михаил Тихонов]
03 - Назад в каменный век [текст читает Михаил Тихонов]
04 - Девять обедов до катастрофы [текст читает Александр Гаврилин]
05 - Сдвиг полюсов [текст читает Денис Некрасов]
06 - Друзья могут стать врагами [текст читает Александр Головчанский]
07 - В паучьей норе [текст читает Радик Мухаметзянов]
08 - На черный день [текст читает Радик Мухаметзянов]
09 - Запри дверь и заряжай ружьё [текст читает Игорь Тарадайкин]
10 - Готовь сани летом [текст читает Александр Гаврилин]
11 - Береженого Бог бережет [текст читает Игорь Тарадайкин]
12 - Итоговый выпуск [текст читает Денис Некрасов]-Качество видео: SATRip
Формат видео: AVI
Видео кодек: DivX, XviD
Аудио кодек: MP3
Видео 1 серия: 704x400 (1.76:1), 20 fps, XviD build 50 ~1773 kbps avg, 0.32 bit/pixel
Аудио: 48 kHz, MPEG Layer 3, 2 ch, ~192.00 kbps avg
Аудио #2: 48 kHz, MPEG Layer 3, 2 ch, ~192.00 kbps avg
Cубтитры: отсутствуют
Общее
Формат : AVI
Формат/Информация : Audio Video Interleave
Размер файла : 698 Мбайт
Продолжительность : 44 м.
Общий поток : 2170 Кбит/сек
Название фильма : N.G.V.ozhidanii.konca.sveta.2012.XviD.SATRip
Программа кодирования : VirtualDubMod 1.5.10.3 | www.virtualdub-fr.org || (build 2550/release)
Правообладатель : destruktor http://kinozal.tv
Видео
Идентификатор : 0
Формат : MPEG-4 Visual
Профиль формата : Advanced [email protected]
Параметр BVOP формата : 2
Параметр QPel формата : Нет
Параметр GMC формата : Без точки перехода
Параметр матрицы формата : Default (MPEG)
Идентификатор кодека : XVID
Идентификатор кодека/Подсказка : XviD
Продолжительность : 44 м.
Битрейт : 1775 Кбит/сек
Ширина : 704 пикселя
Высота : 400 пикселей
Соотношение сторон : 16:9
Частота кадров : 20,000 кадров/сек
Цветовое пространство : YUV
Субдискретизация насыщенности : 4:2:0
Битовая глубина : 8 бит
Тип развёртки : Прогрессивная
Метод сжатия : С потерями
Бит/(Пиксели*Кадры) : 0.315
Размер потока : 571 Мбайт (82%)
Библиотека кодирования : XviD 1.2.1 (UTC 2008-12-04)
Аудио #1
Идентификатор : 1
Формат : MPEG Audio
Версия формата : Version 1
Профиль формата : Layer 3
Режим : Joint stereo
Идентификатор кодека : 55
Идентификатор кодека/Подсказка : MP3
Продолжительность : 44 м.
Вид битрейта : Постоянный
Битрейт : 192 Кбит/сек
Каналы : 2 канала
Частота : 48,0 КГц
Метод сжатия : С потерями
Размер потока : 61,8 Мбайт (9%)
Выравнивание : Соединение по промежуткам
Продолжительность промежутка : 50 мс. (1,00 видеокадр)
Время предзагрузки промежутка : 504 мс.
Библиотека кодирования : LAME3.98
Аудио #2
Идентификатор : 2
Формат : MPEG Audio
Версия формата : Version 1
Профиль формата : Layer 3
Режим : Joint stereo
Расширение режима : MS Stereo
Идентификатор кодека : 55
Идентификатор кодека/Подсказка : MP3
Продолжительность : 44 м.
Вид битрейта : Постоянный
Битрейт : 192 Кбит/сек
Каналы : 2 канала
Частота : 48,0 КГц
Метод сжатия : С потерями
Размер потока : 61,8 Мбайт (9%)
Выравнивание : Соединение по промежуткам
Продолжительность промежутка : 50 мс. (1,00 видеокадр)
Время предзагрузки промежутка : 504 мс.
Download / Скачать

Хотите скачать бесплатно? Зарегистрируйтесь на сайте (ссылка на регистрацию). Pirat.ca - самый быстрый торрент трекер в рунете!

Как скачивать  ·   Что такое торрент  ·   Рейтинг и ограничения



Последний раз редактировалось: UcrusPazzo (2013-05-12 21:00), всего редактировалось 1 раз

ribi

9977

Пост 27-Сен-2012 22:20 (спустя 2 часа 13 минут)

[Q] 

Спасибо! Глянем. а то вдруг забыл чего припасти))

_________________
[Профиль]  [ЛС] 

UcrusPazzo ®

7670

Пост 27-Сен-2012 23:18 (спустя 57 минут)

[Q] 

ribi, тоже готовишся? ))

_________________
[Профиль]  [ЛС] 

kreker-o

Штурман

Пост 27-Сен-2012 23:25 (спустя 7 минут)

[Q] 

Ё-маё, намутить бы бункерчик со всякой байдой на всякий случай))) Сейчас типа все состоятельные люди такие нычки имеют
[Профиль]  [ЛС] 

odyssey123

Флибустьер

Пост 23-Янв-2015 22:46 (спустя 2 года 3 месяца)

[Q] 

Автору респект!!!
Посмотрим...
[Профиль]  [ЛС] 
Показать сообщения:    
Ответить на тему

Текущее время: Сегодня 22:31

Часовой пояс: GMT + 4



Вы не можете начинать темы
Вы не можете отвечать на сообщения
Вы не можете редактировать свои сообщения
Вы не можете удалять свои сообщения
Вы не можете голосовать в опросах
Вы не можете прикреплять файлы к сообщениям
Вы не можете скачивать файлы

▼ Вниз