ML
     
  Уважаемый Гость!
Вы можете поддержать проект и зарегистрироваться у наших партнеров - онлайн-стратегия MyLands. При регистрации в игре Вы получите код, который сможете активировать после регистрации на pirat.ca и получить 1000 дублонов.

Ваш код:
9cfe162481db953a6549f32179d7b3900b8b8643
 
     

National Geographic: Эвакуация Земли / Evacuate Earth (Ted Schillinger, Bill Mcclane) [2012 г., Документальный, SATRip] VO

Ответить на тему
 
Автор
Сообщение

Пост 11-Дек-2012 00:38

[Q] 

UcrusPazzo

National Geographic: Эвакуация Земли / Evacuate Earth Производство: США, Atlas Media
Жанр: Документальный
Год выпуска: 2012 г.
Продолжительность: 01:30:00
Мировая премьера: 2 December 2012 (USA)
Перевод: Профессиональный (одноголосый, закадровый)
Режиссер: Ted Schillinger, Bill Mcclane-Описание: Земля – обречена. К нам приближается разрушительная сила, и времени у нас, все меньше. Когда цивилизация вокруг нас рушится и планета гибнет – сможем ли мы построить космический корабль, способный доставить нас к новым, обитаемым мирам? Удастся ли человечеству избежать уничтожения? Сможем ли мы – эвакуировать Землю?
Конец мира необязательно равен концу человечества. Компьютерная графика и интервью с экспертами покажут нам, как люди смогут покинуть Землю.-Качество видео: SATRip
Формат видео: AVI
Видео кодек: XviD
Аудио кодек: MP3
Видео: 704x400 (1.76:1), 25 fps, XviD build 65 ~1530 kbps avg, 0.22 bit/pixel
Аудио: 48 kHz, MPEG Layer 3, 2 ch, ~128.00 kbps avg
Cубтитры: отсутствуют
Общее
Формат : AVI
Формат/Информация : Audio Video Interleave
Размер файла : 1,05 Гбайт
Продолжительность : 1 ч. 29 м.
Общий поток : 1669 Кбит/сек
Программа кодирования : VirtualDubMod 1.5.10.3 | www.virtualdub-fr.org || (build 2550/release)
Библиотека кодирования : VirtualDubMod build 2550/release
Видео
Идентификатор : 0
Формат : MPEG-4 Visual
Профиль формата : Advanced [email protected]
Параметр BVOP формата : 2
Параметр QPel формата : Нет
Параметр GMC формата : Без точки перехода
Параметр матрицы формата : Default (MPEG)
Идентификатор кодека : XVID
Идентификатор кодека/Подсказка : XviD
Продолжительность : 1 ч. 29 м.
Битрейт : 1531 Кбит/сек
Ширина : 704 пикселя
Высота : 400 пикселей
Соотношение сторон : 16:9
Частота кадров : 25,000 кадров/сек
Цветовое пространство : YUV
Субдискретизация насыщенности : 4:2:0
Битовая глубина : 8 бит
Тип развёртки : Прогрессивная
Метод сжатия : С потерями
Бит/(Пиксели*Кадры) : 0.217
Размер потока : 985 Мбайт (92%)
Библиотека кодирования : XviD 65
Аудио
Идентификатор : 1
Формат : MPEG Audio
Версия формата : Version 1
Профиль формата : Layer 3
Режим : Joint stereo
Расширение режима : MS Stereo
Идентификатор кодека : 55
Идентификатор кодека/Подсказка : MP3
Продолжительность : 1 ч. 29 м.
Вид битрейта : Постоянный
Битрейт : 128 Кбит/сек
Каналы : 2 канала
Частота : 48,0 КГц
Метод сжатия : С потерями
Размер потока : 82,4 Мбайт (8%)
Выравнивание : Соединение по промежуткам
Продолжительность промежутка : 40 мс. (1,00 видеокадр)
Время предзагрузки промежутка : 504 мс.
Download / Скачать

Хотите скачать бесплатно? Зарегистрируйтесь на сайте (ссылка на регистрацию). Pirat.ca - самый быстрый торрент трекер в рунете!

Как скачивать  ·   Что такое торрент  ·   Рейтинг и ограничения



Последний раз редактировалось: UcrusPazzo (2013-05-12 14:41), всего редактировалось 1 раз

me14

999

Пост 11-Дек-2012 01:22 (спустя 43 минуты)

[Q] 


_________________
Если вы все еще не забанены - это не ваша заслуга, а модераторская недоработка.
[Профиль]  [ЛС] 

krendel1973

Флибустьер

Пост 12-Дек-2012 13:12 (спустя 1 день 11 часов)

[Q] 

[Профиль]  [ЛС] 

lucifer0707

Морской Волк

Пост 14-Дек-2012 11:31 (спустя 1 день 22 часа)

[Q] 

надо посмотрреть...в предверии 21.12.12))
[Профиль]  [ЛС] 

Aviraelis

Морской Волк

24

Пост 07-Янв-2013 23:44 (спустя 24 дня)

[Q] 

Мы создадим Вавилон 5:)
[Профиль]  [ЛС] 
Показать сообщения:    
Ответить на тему

Текущее время: Сегодня 06:03

Часовой пояс: GMT + 4



Вы не можете начинать темы
Вы не можете отвечать на сообщения
Вы не можете редактировать свои сообщения
Вы не можете удалять свои сообщения
Вы не можете голосовать в опросах
Вы не можете прикреплять файлы к сообщениям
Вы не можете скачивать файлы

▼ Вниз