ML
     
  Уважаемый Гость!
Вы можете поддержать проект и зарегистрироваться у наших партнеров - онлайн-стратегия MyLands. При регистрации в игре Вы получите код, который сможете активировать после регистрации на pirat.ca и получить 1000 дублонов.

Ваш код:
8dcb839cf1b47e56d6dc42d17f26b3e4822e9aee
 
     

Тимбавати: мир диких кошек / Timbavati: An Epic Cat Story / Серии: 1-3 (Stefania Muller / Стефания Мюллер) [2011-2012 г., Документальный, HDTVRip] VO [+ Original (Eng)]

Ответить на тему
 
Автор
Сообщение

Пост 12-Фев-2013 14:41

[Q] 

Koralina

Тимбавати: мир диких кошек / Timbavati: An Epic Cat Story
Производство: США
Жанр: Документальный
Год выпуска: 2011-2012 г.
Продолжительность: 3 серии ~ 45:00
Перевод: Профессиональный (одноголосый, закадровый)
Автор(ы) перевода: Игорь Тарадайкин / АРК·ТВ
Оригинальный аудиопоток: английский
Режиссер: Stefania Muller / Стефания Мюллер
Описание: 1.Царский прайд / The King's Pride
Доминирующий лев является главой прайда, львицы при этом охотятся, поддерживают социальную структуру и растят детенышей.
2.Нежные убийцы / Tender Killers
Леопарды - заботливые родители и стараются привить детенышам умение охотиться и избегать хищников, - но опасность поджидает их на каждом шагу.
3.Кровные узы / Blood Ties
Эта программа следит за жизнью семейных групп льва, дикой собаки и гиены, обитающих в национальном парке Крюгера, сравнивая структуру их стай.


Качество видео: HDTVRip
Контейнер: AVI
Видео кодек: XviD
Аудио кодек: MP3
Видео: XviD, 720х400, ~1 995 Kbps, 25.000 fps
Аудио: MP3 2 ch, 128 Kbps, 48.0 KHz
Cубтитры: отсутствуют
Format : AVI
Format/Info : Audio Video Interleave
File size : 685 MiB
Duration : 44mn 59s
Overall bit rate : 2 128 Kbps
Director : CrimeanFox
Writing application : VirtualDubMod 1.5.10.3 | www.virtualdub-fr.org || (build 2550/release)
Writing library : VirtualDub build 32706/release
Copyright : Vanila.films
Video
ID : 0
Format : MPEG-4 Visual
Format profile : Advanced [email protected]
Format settings, BVOP : 2
Format settings, QPel : No
Format settings, GMC : No warppoints
Format settings, Matrix : Default (MPEG)
Codec ID : XVID
Codec ID/Hint : XviD
Duration : 44mn 59s
Bit rate : 1 990 Kbps
Width : 720 pixels
Height : 400 pixels
Display aspect ratio : 16:9
Frame rate : 25.000 fps
Color space : YUV
Chroma subsampling : 4:2:0
Bit depth : 8 bits
Scan type : Progressive
Compression mode : Lossy
Bits/(Pixel*Frame) : 0.276
Stream size : 640 MiB (94%)
Writing library : XviD 65
Audio
ID : 1
Format : MPEG Audio
Format version : Version 1
Format profile : Layer 3
Codec ID : 55
Codec ID/Hint : MP3
Duration : 44mn 59s
Bit rate mode : Constant
Bit rate : 128 Kbps
Channel(s) : 2 channels
Sampling rate : 48.0 KHz
Compression mode : Lossy
Stream size : 41.2 MiB (6%)
Alignment : Aligned on interleaves
Interleave, duration : 40 ms (1.00 video frame)
Interleave, preload duration : 504 ms
Writing library : LAME3.99r
Encoding settings : -m s -V 4 -q 2 -lowpass 17 -b 128
Скриншоты:--Качество видео: HDTVRip
Контейнер: AVI
Видео кодек: XviD
Аудио кодек: MP3
Видео: XviD, 720х400, ~1 995 Kbps, 25.000 fps
Аудио: MP3 2 ch, 128 Kbps, 48.0 KHz
Cубтитры: отсутствуют
Format : AVI
Format/Info : Audio Video Interleave
File size : 686 MiB
Duration : 45mn 0s
Overall bit rate : 2 131 Kbps
Director : CrimeanFox
Writing application : VirtualDubMod 1.5.10.3 | www.virtualdub-fr.org || (build 2550/release)
Writing library : VirtualDub build 32706/release
Copyright : Vanila.films
Video
ID : 0
Format : MPEG-4 Visual
Format profile : Advanced [email protected]
Format settings, BVOP : 2
Format settings, QPel : No
Format settings, GMC : No warppoints
Format settings, Matrix : Default (MPEG)
Codec ID : XVID
Codec ID/Hint : XviD
Duration : 45mn 0s
Bit rate : 1 993 Kbps
Width : 720 pixels
Height : 400 pixels
Display aspect ratio : 16:9
Frame rate : 25.000 fps
Color space : YUV
Chroma subsampling : 4:2:0
Bit depth : 8 bits
Scan type : Progressive
Compression mode : Lossy
Bits/(Pixel*Frame) : 0.277
Stream size : 641 MiB (94%)
Writing library : XviD 65
Audio
ID : 1
Format : MPEG Audio
Format version : Version 1
Format profile : Layer 3
Codec ID : 55
Codec ID/Hint : MP3
Duration : 45mn 0s
Bit rate mode : Constant
Bit rate : 128 Kbps
Channel(s) : 2 channels
Sampling rate : 48.0 KHz
Compression mode : Lossy
Stream size : 41.2 MiB (6%)
Alignment : Aligned on interleaves
Interleave, duration : 40 ms (1.00 video frame)
Interleave, preload duration : 504 ms
Writing library : LAME3.99r
Encoding settings : -m s -V 4 -q 2 -lowpass 17 -b 128
Скриншоты:--Качество видео: HDTVRip
Контейнер: AVI
Видео кодек: XviD
Аудио кодек: MP3
Видео: XviD, 720х400, ~1 995 Kbps, 25.000 fps
Аудио: MP3 2 ch, 128 Kbps, 48.0 KHz
Cубтитры: отсутствуют
Format : AVI
Format/Info : Audio Video Interleave
File size : 686 MiB
Duration : 44mn 59s
Overall bit rate : 2 133 Kbps
Director : CrimeanFox
Writing application : VirtualDubMod 1.5.10.3 | www.virtualdub-fr.org || (build 2550/release)
Writing library : VirtualDub build 32706/release
Copyright : Vanila.films
Video
ID : 0
Format : MPEG-4 Visual
Format profile : Advanced [email protected]
Format settings, BVOP : 2
Format settings, QPel : No
Format settings, GMC : No warppoints
Format settings, Matrix : Default (MPEG)
Codec ID : XVID
Codec ID/Hint : XviD
Duration : 44mn 59s
Bit rate : 1 995 Kbps
Width : 720 pixels
Height : 400 pixels
Display aspect ratio : 16:9
Frame rate : 25.000 fps
Color space : YUV
Chroma subsampling : 4:2:0
Bit depth : 8 bits
Scan type : Progressive
Compression mode : Lossy
Bits/(Pixel*Frame) : 0.277
Stream size : 642 MiB (94%)
Writing library : XviD 65
Audio
ID : 1
Format : MPEG Audio
Format version : Version 1
Format profile : Layer 3
Codec ID : 55
Codec ID/Hint : MP3
Duration : 44mn 59s
Bit rate mode : Constant
Bit rate : 128 Kbps
Channel(s) : 2 channels
Sampling rate : 48.0 KHz
Compression mode : Lossy
Stream size : 41.2 MiB (6%)
Alignment : Aligned on interleaves
Interleave, duration : 40 ms (1.00 video frame)
Interleave, preload duration : 504 ms
Writing library : LAME3.99r
Encoding settings : -m s -V 4 -q 2 -lowpass 17 -b 128
Скриншоты:--Релиз группа:
Download / Скачать

Хотите скачать бесплатно? Зарегистрируйтесь на сайте (ссылка на регистрацию). Pirat.ca - самый быстрый торрент трекер в рунете!

Как скачивать  ·   Что такое торрент  ·   Рейтинг и ограничения

egorka st

Корсар

Пост 12-Фев-2013 16:51 (спустя 2 часа 10 минут)

[Q] 

Koralina,
Спасибо большое! А ещё есть документальные фильмы о животных? Нравится смотреть, особенно про диких кошек.

_________________
[Профиль]  [ЛС] 

Koralina ®

80159

Пост 12-Фев-2013 17:52 (спустя 1 час 1 минута)

[Q] 

egorka st, есть конечно. По возможности буду выкладывать обязательно.

_________________
[Профиль]  [ЛС] 

UcrusPazzo

7670

Пост 14-Фев-2013 18:56 (спустя 2 дня 1 час)

[Q] 

egorka st, есть )))
Последняя львица / The Last Lioness (Дэвид Падруш) [2010, Документальный, HDTVRip, 720p]
Жизнь среди больших кошек / Living with Big Cats (Беверли и Дерек Жюбер / Beverly and Dereck Joubert) [2007, Документальный, HDTVRip]
Глаз леопарда / Глазами леопарда / Eye of the Leopard (Dereck & Beverly Joubert / Дерек и Беверли Жубер) [2006, документальный, HDTVRip]
Сын леопарда / The Leopard son (Хьюго ван Лавик / Hugo Van Lawick) [1996, документальный, HDTV]
Суперпрайд / National Geographic: Superpride (Джеймс Берн / James Burn) [2007 г.] (Документальный / Животные) [HDTVRip]
BBC: Брачные игры в мире животных / Battle of the Sexes: in the Animal World (Джон Спаркс / John Sparks) [1999 г., Документальный, DVDRip] (MVO)

_________________
[Профиль]  [ЛС] 

UcrusPazzo

7670

Пост 14-Фев-2013 18:57 (спустя 44 секунды)

[Q] 

Koralina, Вам спасибо за раздачку. ))

_________________
[Профиль]  [ЛС] 

Koralina ®

80159

Пост 15-Фев-2013 01:50 (спустя 6 часов)

[Q] 

UcrusPazzo, aa да не за что.

_________________
[Профиль]  [ЛС] 

egorka st

Корсар

Пост 15-Фев-2013 12:01 (спустя 10 часов)

[Q] 

UcrusPazzo,
Спасибо. Всё скачаю и посмотрю с большим удовольствием.

_________________
[Профиль]  [ЛС] 
Показать сообщения:    
Ответить на тему

Текущее время: Сегодня 04:13

Часовой пояс: GMT + 4



Вы не можете начинать темы
Вы не можете отвечать на сообщения
Вы не можете редактировать свои сообщения
Вы не можете удалять свои сообщения
Вы не можете голосовать в опросах
Вы не можете прикреплять файлы к сообщениям
Вы не можете скачивать файлы

▼ Вниз