ML
     
  Уважаемый Гость!
Вы можете поддержать проект и зарегистрироваться у наших партнеров - онлайн-стратегия MyLands. При регистрации в игре Вы получите код, который сможете активировать после регистрации на pirat.ca и получить 1000 дублонов.

Ваш код:
ea554e7ed3eacceeae87a8b30a9de3f086c18a84
 
     

Запреты: Уродство / Taboo: Ugly (Эмили Марфин / Emily Murfin) [2012 г., документальный, научно-познавательный, исследование, SATRip] Dub

Ответить на тему
 
Автор
Сообщение

Пост 18-Июл-2013 11:40

[Q] 

me14

-Запреты: Уродство / Taboo: Ugly-- Производство: США, National Geographic
Жанр: документальный, научно-познавательный, исследование
Год выпуска: 2012 г.
Продолжительность: 00:44:55
Перевод: Профессиональный (полное дублирование)
Режиссер: Эмили Марфин / Emily Murfin-Описание: Наш внешний вид может значительно воздействовать на нашу жизнь. Люди считают уродство своего рода социальной инвалидностью, ведь оно влияет не только на самооценку человека, но и на отношению к нему окружающих.
В обществе где красота превозносится, уродство считается ругательным словом. Модельные агентства создали эталон красоты, до которого далеко подавляющему большинству людей. Соответствуете ли вы идеалам красоты, или нет, это обязательно окажет влияние на вашу жизнь.-
Качество видео: SATRip
Контейнер: AVI
Видео кодек: XviD
Аудио кодек: MP3
Видео: XviD, 1785 Кбит/с, 704x400,25.000 fps
Аудио: MPEG Audio, 192 Kbps, 2 channels, 48.0 KHz (rus)
Аудио #2: MPEG Audio, 192 Kbps, 2 channels, 48.0 KHz (eng)
Cубтитры: отсутствуют
Формат : AVI
Формат/Информация : Audio Video Interleave
Размер файла : 701 MiB
Продолжительность : 44mn 54s
Общий поток : 2 183 Kbps
Программа кодирования : VirtualDubMod 1.5.10.3 | www.virtualdub-fr.org || (build 2550/release)
Библиотека кодирования : VirtualDubMod build 2550/release
Video
Идентификатор : 0
Формат : MPEG-4 Visual
Профиль формата : Advanced [email protected]
Параметр BVOP формата : 2
Параметр QPel формата : No
Параметр GMC формата : No warppoints
Параметр матрицы формата : Default (MPEG)
Идентификатор кодека : XVID
Идентификатор кодека/Подсказка : XviD
Продолжительность : 44mn 54s
Битрейт : 1 785 Kbps
Ширина : 704 pixels
Высота : 400 pixels
Соотношение сторон : 16:9
Частота кадров : 25.000 fps
Цветовое пространство : YUV
Подвыборка цветности : 4:2:0
Битовая глубина : 8 bits
Тип развёртки : Progressive
Метод сжатия : Lossy
Бит/(Пиксели*Кадры) : 0.254
Размер потока : 573 MiB (82%)
Библиотека кодирования : XviD 1.2.1 (UTC 2008-12-04)
Audio #1
Идентификатор : 1
Формат : MPEG Audio
Версия формата : Version 1
Профиль формата : Layer 3
Режим : Joint stereo
Расширение режима : MS Stereo
Идентификатор кодека : 55
Идентификатор кодека/Подсказка : MP3
Продолжительность : 44mn 54s
Вид битрейта : Constant
Битрейт : 192 Kbps
Канал(ы) : 2 channels
Частота : 48.0 KHz
Метод сжатия : Lossy
Размер потока : 61.7 MiB (9%)
Выравнивание : Aligned on interleaves
Продолжительность промежутка : 40 ms (1.00 video frame)
Время предзагрузки промежутка : 504 ms
Библиотека кодирования : LAME3.98.4ЄЄЄЄ
Audio #2
Идентификатор : 2
Формат : MPEG Audio
Версия формата : Version 1
Профиль формата : Layer 3
Режим : Joint stereo
Расширение режима : MS Stereo
Идентификатор кодека : 55
Идентификатор кодека/Подсказка : MP3
Продолжительность : 44mn 54s
Вид битрейта : Constant
Битрейт : 192 Kbps
Канал(ы) : 2 channels
Частота : 48.0 KHz
Метод сжатия : Lossy
Размер потока : 61.7 MiB (9%)
Выравнивание : Aligned on interleaves
Продолжительность промежутка : 40 ms (1.00 video frame)
Время предзагрузки промежутка : 504 ms
Библиотека кодирования : LAME3.98.4
Download / Скачать

Хотите скачать бесплатно? Зарегистрируйтесь на сайте (ссылка на регистрацию). Pirat.ca - самый быстрый торрент трекер в рунете!

Как скачивать  ·   Что такое торрент  ·   Рейтинг и ограничения

Показать сообщения:    
Ответить на тему

Текущее время: Сегодня 12:10

Часовой пояс: GMT + 4



Вы не можете начинать темы
Вы не можете отвечать на сообщения
Вы не можете редактировать свои сообщения
Вы не можете удалять свои сообщения
Вы не можете голосовать в опросах
Вы не можете прикреплять файлы к сообщениям
Вы не можете скачивать файлы

▼ Вниз