ML
     
  Уважаемый Гость!
Вы можете поддержать проект и зарегистрироваться у наших партнеров - онлайн-стратегия MyLands. При регистрации в игре Вы получите код, который сможете активировать после регистрации на pirat.ca и получить 1000 дублонов.

Ваш код:
ba41f7961e0b4717aed6a401d955262223b8f6c4
 
     

Шоссе через ад: / Highway Thru Hell: (Сезон: 1-2 / Серии: 1-18) (Жаден Стояк Бейбкок / Марк А. Миллер ) [2012 г., Документальный, познавательный, HDTVRip / IPTVRip] VO

Ответить на тему
 
Автор
Сообщение

Пост 13-Окт-2013 21:20

[Q] 

Seva78

-Шоссе через ад: Канада / Highway Thru Hell: Kanada--
Производство: США, Канада, GPM-H2H Productions inc., National Geographic
Жанр: Документальный, познавательный
Год выпуска: 2012 г.
Продолжительность: 10 ~ 00:45:00
Перевод: Профессиональный (одноголосый, закадровый)
Режиссер:Жаден Стояк Бейбкок
-Описание: В горах северо-западной части Северной Америки проходит уникальное шоссе. Эта дорога не терпит рассеянности! Это один из самых высокогорных участков Северной Америки. Если вы не ездили на этом шоссе, Вам не понять. Это очень опасно! Каждый день тысячи водителей грузовиков должны пройти через этот участок. Но когда погода портится, она становится дорогой через ад! Чтобы ликвидировать заторы на шоссе требуется целая армия людей и техники, спасательных грузовиков и бригада, готовая справиться почти с любой бедой, угрожающей в горах. Потому что закрытие трассы – невозможно!
01. Смерть на Кокихалле
В начале зимы на дорогу в ущелье Кокихаллы обрушивается снежная буря, и, расчищая заносы, бригада обнаруживает последствия трагической аварии.
02. Где мой эвакуатор
Бригада остро ощущает нехватку нужной техники, пытаясь расчистить шоссе от тонн брёвен, разбросанных вдоль него из-за аварии грузовика.
03. Буря повсюду
Джейми пересматривает своё решение взять в бригаду своего сына Брэндона. Между тем Кевин в порыве раздражения бросает текущую работу.
04. Испытание новобранца
Нерасторопный новый водитель Роб, которого не было во время бурана, испытывает терпение Джейми. Ему дан последний шанс доказать свою пригодность.
05. Битва буксировщиков
Джейми и Эл соревнуются за звание "Король Кокихаллы". Один из водителей узнает, что его друг чуть не погиб во время аварийно-спасательных работ.
06. Лавиноопасная зона
Бригаду Джейми вызывают на Кокихаллу, где из-за сильнейшего снегопада работают вертолёты для сброса специальных снарядов, предотвращающих лавины.
07. Семейный бизнес
Аварийно-спасательная бригада берется за самую трудную до сих пор работу: подъём разбившегося джипа, упавшего с отвесной скалы высотой 400 м.
08. Инь и ян
Кевин покупает видеокамеру, чтобы снимать аварии, но его новое хобби начинает мешать ему, и его помощнику Сэми приходится делать основную работу.
09. Я больше не могу!
Отвесные склоны, убийственные обвалы и 120-метровые пропасти делают дорогу через Каскадные горы настоящим кошмаром для водителей грузовиков.
10. После аварии
Джеми и его команда вспоминают лучшее и худшее, травмы и ссоры прошедшего сезона и раскрывают, почему они выстояли до конца, несмотря ни на что.
-Качество видео: HDTVRip
Контейнер: AVI
Видео кодек: XviD
Аудио кодек: AC-3
Видео: MPEG-4 Visual at 1784 Кбит/сек 720 x 400 (1.800) at 29.970 fps
Аудио: AC-3 at 192 Кбит/сек 2 канала, 48,0 КГц

Формат : AVI
Формат/Информация : Audio Video Interleave
Размер файла : 652 Мбайт
Продолжительность : 45 м.
Общий поток : 1988 Кбит/сек
Программа кодирования : VirtualDubMod 1.5.10.3 | www.virtualdub-fr.org || (build 2550/release)
Библиотека кодирования : VirtualDubMod build 2550/release
Видео
Идентификатор : 0
Формат : MPEG-4 Visual
Профиль формата : Advanced [email protected]
Параметр BVOP формата : 1
Параметр QPel формата : Нет
Параметр GMC формата : Без точки перехода
Параметр матрицы формата : Default (H.263)
Идентификатор кодека : XVID
Идентификатор кодека/Подсказка : XviD
Продолжительность : 45 м.
Битрейт : 1784 Кбит/сек
Ширина : 720 пикселей
Высота : 400 пикселей
Соотношение сторон : 16:9
Частота кадров : 29,970 кадров/сек
Цветовое пространство : YUV
Субдискретизация насыщенности : 4:2:0
Битовая глубина : 8 бит
Тип развёртки : Прогрессивная
Метод сжатия : С потерями
Бит/(Пиксели*Кадры) : 0.207
Размер потока : 585 Мбайт (90%)
Библиотека кодирования : XviD 1.2.1 (UTC 2008-12-04)
Аудио
Идентификатор : 1
Формат : AC-3
Формат/Информация : Audio Coding 3
Расширение режима : CM (complete main)
Параметр Endianness формата : Big
Идентификатор кодека : 2000
Продолжительность : 45 м.
Вид битрейта : Постоянный
Битрейт : 192 Кбит/сек
Каналы : 2 канала
Расположение каналов : Front: L R
Частота : 48,0 КГц
Битовая глубина : 16 бит
Метод сжатия : С потерями
Задержка видео : 24 мс.
Размер потока : 63,0 Мбайт (10%)
Выравнивание : Разделение по промежуткам
Продолжительность промежутка : 33 мс. (1,00 видеокадр)
Время предзагрузки промежутка : 500 мс.
- Шоссе через ад: США / Highway Thru Hell: USA-- Производство: США, Канада, GPM-H2H Productions inc., National Geographic
Жанр: Документальный, познавательный
Год выпуска: 2012 г.
Продолжительность: 8 ~ 00:45:00
Перевод: Профессиональный (одноголосый, закадровый)
Режиссер: Марк А. Миллер / Mark A. Miller
-
Описание: В этом сезоне: На перевале Доннера. Одни из самых смертельных гор Америки. 4 конкурирующие буксировочные компании борются со стихией и друг с другом, всегда в погоне за деньгами, падающими с неба.
-

01. Умри, но сделай
Во время сильнейшего снегопада на перевале Доннера команда пытается вытащить гружёный сеном автопоезд из канавы, находящейся намного ниже шоссе.
02. Холодный день в аду
С началом первого сильного снегопада Бекки и Эдгар пытаются поднять перевернувшийся автопоезд, перекрывший всё шоссе в западном направлении.
03. Герои дорог
В то время как Эдди попадает в худший с начала сезона снежный буран, он получает срочный звонок от жены, у которой, кажется, начались роды.
04. Дорожные кошмары
Соперничество между Сэмом и Эдди усиливается; Брэндон имеет дело со смертью на шоссе; Бекки мучают воспоминания; объявление Уилла поражает всех.
05. Мертвая зона
Эдгар должен вытащить джип с водителем, наполовину провалившийся под лёд озера. Между тем Сэм стремится как можно больше заработать.
06. Снежная буря
Джастин нарывается на неприятности, когда крадет буксирный трос у своего коллеги Сэма. Позднее он сталкивается с задачей, кажущейся невыполнимой.
07. Ледяной ад
Наступает полный хаос, когда дороги покрываются коркой льда. Ссора Сэма и Крейга чуть не переходит в драку, а Уилл узнает, что от него ушла жена.
08. Топливо на нуле
В конце зимы начинается полный беспредел: Сэм чуть не попадает под тягач, Джастин смотрит смерти в глаза, а один водитель покидает горы навсегда
.
-Качество видео: IPTVRip
Контейнер: AVI
Видео кодек: XviD
Аудио кодек: MP3
Видео: MPEG-4 Visual at 1803 Кбит/сек 720 x 400 (1.800) at 25.000 fps
Аудио: MPEG Audio at 192 Кбит/сек 2 канала, 48,0 КГц
Формат : AVI
Формат/Информация : Audio Video Interleave
Размер файла : 645 Мбайт
Продолжительность : 44 м.
Общий поток : 2005 Кбит/сек
Программа кодирования : VirtualDubMod 1.5.10.3 | www.virtualdub-fr.org || (build 2550/release)
Библиотека кодирования : VirtualDubMod build 2550/release
Видео
Идентификатор : 0
Формат : MPEG-4 Visual
Профиль формата : Advanced [email protected]
Параметр BVOP формата : 1
Параметр QPel формата : Нет
Параметр GMC формата : Без точки перехода
Параметр матрицы формата : Default (H.263)
Идентификатор кодека : XVID
Идентификатор кодека/Подсказка : XviD
Продолжительность : 44 м.
Битрейт : 1803 Кбит/сек
Ширина : 720 пикселей
Высота : 400 пикселей
Соотношение сторон : 16:9
Частота кадров : 25,000 кадров/сек
Цветовое пространство : YUV
Субдискретизация насыщенности : 4:2:0
Битовая глубина : 8 бит
Тип развёртки : Прогрессивная
Метод сжатия : С потерями
Бит/(Пиксели*Кадры) : 0.250
Размер потока : 580 Мбайт (90%)
Библиотека кодирования : XviD 1.2.1 (UTC 2008-12-04)
Аудио
Идентификатор : 1
Формат : MPEG Audio
Версия формата : Version 1
Профиль формата : Layer 3
Идентификатор кодека : 55
Идентификатор кодека/Подсказка : MP3
Продолжительность : 44 м.
Вид битрейта : Постоянный
Битрейт : 192 Кбит/сек
Каналы : 2 канала
Частота : 48,0 КГц
Метод сжатия : С потерями
Размер потока : 61,8 Мбайт (10%)
Выравнивание : Соединение по промежуткам
Продолжительность промежутка : 40 мс. (1,00 видеокадр)
Время предзагрузки промежутка : 504 мс.
Библиотека кодирования : LAME3.99r
Настройки программы : -m s -V 4 -q 2 -lowpass 18.6 -b 192
Download / Скачать

Хотите скачать бесплатно? Зарегистрируйтесь на сайте (ссылка на регистрацию). Pirat.ca - самый быстрый торрент трекер в рунете!

Как скачивать  ·   Что такое торрент  ·   Рейтинг и ограничения

civic_85

Корсар

Пост 14-Окт-2013 11:22 (спустя 14 часов)

[Q] 

пусть сначала наш туапсинский 4х часовой серпонтин проедут зимой)))

_________________
[Профиль]  [ЛС] 

Seva78 ®

1518

Пост 15-Окт-2013 09:30 (спустя 22 часа)

[Q] 

civic_85, Вот потренируются у себя и приедут к вам:)

_________________
[Профиль]  [ЛС] 

civic_85

Корсар

Пост 19-Окт-2013 20:16 (спустя 4 дня)

[Q] 

Seva78, точно az

_________________
[Профиль]  [ЛС] 

DDoS55

Флибустьер

2252

Пост 31-Окт-2013 22:50 (спустя 12 дней)

[Q] 

В сибирь в -40, посмотрел бы я на них bj

_________________
включайте в торрент клиенте: DHT, обмен пирами, шифрование, ip-фильтр
[Профиль]  [ЛС] 
Показать сообщения:    
Ответить на тему

Текущее время: Сегодня 14:45

Часовой пояс: GMT + 4



Вы не можете начинать темы
Вы не можете отвечать на сообщения
Вы не можете редактировать свои сообщения
Вы не можете удалять свои сообщения
Вы не можете голосовать в опросах
Вы не можете прикреплять файлы к сообщениям
Вы не можете скачивать файлы

▼ Вниз