ML
     
  Уважаемый Гость!
Вы можете поддержать проект и зарегистрироваться у наших партнеров - онлайн-стратегия MyLands. При регистрации в игре Вы получите код, который сможете активировать после регистрации на pirat.ca и получить 1000 дублонов.

Ваш код:
ea554e7ed3eacceeae87a8b30a9de3f086c18a84
 
     

Суперхищники / I predator / Сезон: Серии: 1-6 из 6 (Джон Бренкус / John Brenkus, Микки Стерн / Mickey Stern, Роберт Керран / Robert Curran) [2010 г., документальный, SATRip] VO

Ответить на тему
 
Автор
Сообщение

Пост 20-Дек-2013 08:36

[Q] 

Azat17

Шкипер

-Суперхищники / I predator-- Производство: Base Productions, Inc., National Geographic Channel
Жанр: документальный
Год выпуска: 2010 г.
Продолжительность: 6 х ~ 00:45:04
Перевод: Профессиональный (одноголосый, закадровый)
Режиссер: Джон Бренкус / John Brenkus, Микки Стерн / Mickey Stern, Роберт Керран / Robert Curran-Описание: Взгляд на хищника, так как его ни кто не видел, взгляд изнутри, глазами самого хищника. Вы увидите взгляд изнутри о Белой Акуле, Полярном медведе, Нильском Крокодиле, Гепарде, Льве, Кaсатке.-Качество видео: SATRip
Контейнер: AVI
Видео кодек: XviD
Аудио кодек: MP3
Видео: 720x432 (1.67:1), 25 fps, XviD build 50 ~1796 kbps avg, 0.23 bit/pixel
Аудио: 48 kHz, MPEG Layer 3, 1 ch, ~128.00 kbps avg
Cубтитры: отсутствуют
I:\a1\I_predator\I_predator_1.avi
General
Complete name : I:\a1\I_predator\I_predator_1.avi
Format : AVI
Format/Info : Audio Video Interleave
Format profile : OpenDML
Format settings : rec
File size : 623 MiB
Duration : 45mn 3s
Overall bit rate : 1 932 Kbps
Writing application : AVI-Mux GUI 1.17.8.3, Feb 16 201019:42:50
Video #0
ID : 0
Format : MPEG-4 Visual
Format profile : Advanced [email protected]
Format settings, BVOP : 2
Format settings, QPel : No
Format settings, GMC : No warppoints
Format settings, Matrix : Default (MPEG)
Codec ID : XVID
Codec ID/Hint : XviD
Duration : 45mn 3s
Bit rate : 1 800 Kbps
Width : 720 pixels
Height : 432 pixels
Display aspect ratio : 1.667
Frame rate : 25.000 fps
Color space : YUV
Chroma subsampling : 4:2:0
Bit depth : 8 bits
Scan type : Progressive
Compression mode : Lossy
Bits/(Pixel*Frame) : 0.231
Stream size : 580 MiB (93%)
Writing library : XviD 1.2.1 (UTC 2008-12-04)
Audio #1
ID : 1
Format : MPEG Audio
Format version : Version 1
Format profile : Layer 3
Codec ID : 55
Codec ID/Hint : MP3
Duration : 45mn 3s
Bit rate mode : Constant
Bit rate : 128 Kbps
Channel(s) : 1 channel
Sampling rate : 48.0 KHz
Compression mode : Lossy
Stream size : 41.3 MiB (7%)
Alignment : Aligned on interleaves
Interleave, duration : 458 ms (11.46 video frames)
Interleave, preload duration : 216 ms
Title : I_predator_1 - National Geografic Wild-20110125-035501 Tc0 L2 mono 48 96 DELAY 0ms
Writing library : LAME3.98r
Encoding settings : -m m -V 4 -q 2 -lowpass 20.5 -b 128



Download / Скачать

Хотите скачать бесплатно? Зарегистрируйтесь на сайте (ссылка на регистрацию). Pirat.ca - самый быстрый торрент трекер в рунете!

Как скачивать  ·   Что такое торрент  ·   Рейтинг и ограничения



Последний раз редактировалось: Azat17 (2013-12-20 22:09), всего редактировалось 4 раз(а)

mstislaw

Флибустьер

Пост 17-Фев-2014 18:15 (спустя 1 месяц 28 дней)

[Q] 

Странно. Сид - есть, а скачать не могу. За два дня только 40 MB.
[Профиль]  [ЛС] 

mstislaw

Флибустьер

Пост 19-Фев-2014 15:47 (спустя 1 день 21 час)

[Q] 

Сегодня скачивание завершилось. Спасибо.
[Профиль]  [ЛС] 
Показать сообщения:    
Ответить на тему

Текущее время: Сегодня 12:12

Часовой пояс: GMT + 4



Вы не можете начинать темы
Вы не можете отвечать на сообщения
Вы не можете редактировать свои сообщения
Вы не можете удалять свои сообщения
Вы не можете голосовать в опросах
Вы не можете прикреплять файлы к сообщениям
Вы не можете скачивать файлы

▼ Вниз