ML
     
  Уважаемый Гость!
Вы можете поддержать проект и зарегистрироваться у наших партнеров - онлайн-стратегия MyLands. При регистрации в игре Вы получите код, который сможете активировать после регистрации на pirat.ca и получить 1000 дублонов.

Ваш код:
e93cd9e43017f251127f220889864c05934e61c6
 
     

Делай ставки и взрывай / Bid & Destroy / Сезон: 1 / Серии: 1-11 из 12 серий (National Geographic) [2012 г., документальный, SATRip] VO (студия АРК ТВ)

Ответить на тему
 
Автор
Сообщение

Пост 06-Фев-2014 21:27

[Q] 

Seva78

-Делай ставки и взрывай / Bid & Destroy-- Производство: США, National Geographic, Leftfield Pictures
Жанр: документальный
Год выпуска: 2012 г.
Продолжительность: 11 х 00:22:30
Перевод: Профессиональный (одноголосый, закадровый) студия АРК ТВ
-В ролях: Мастеры - ломастеры-Описание: Сериал рассказывает о работе компании «Danley Demo»из Нью-Гэмпшира, участвующей в тендерах на демонтаж зданий по всей Новой Англии в надежде на то, что объекты, которые ей предстоит снести, – а их у этой фирмы обычно бывает свыше 200 в год, – принесут ей богатство.Выиграв тендер, герои программы сначала раскурочивают весь дом в поисках забытых ценностей, на которых можно заработать, а затем демонтируют его. Они работают с самыми разными строениями – от маленьких домов до заброшенных складов, и каждое из них имеет свою историю и, возможно, таит в себе сокровища.-
Качество видео: SATRip
Контейнер: AVI
Видео кодек: XviD
Аудио кодек: AC3
Видео: MPEG-4 Visual at 1725 Кбит/сек 720 x 400 (1.800) at 25.000 fps
Аудио: AC-3 at 192 Кбит/сек 2 канала, 48,0 КГц
Аудио #2: AC-3 at 192 Кбит/сек 2 канала, 48,0 КГц
Cубтитры: отсутствуют
Формат : AVI
Формат/Информация : Audio Video Interleave
Размер файла : 342 Мбайт
Продолжительность : 22 м.
Общий поток : 2123 Кбит/сек
Программа кодирования : VirtualDubMod 1.5.10.2 (build 2540/release)
Библиотека кодирования : VirtualDubMod build 2540/release
Видео
Идентификатор : 0
Формат : MPEG-4 Visual
Профиль формата : Advanced [email protected]
Параметр BVOP формата : 1
Параметр QPel формата : Нет
Параметр GMC формата : Без точки перехода
Параметр матрицы формата : Default (H.263)
Идентификатор кодека : XVID
Идентификатор кодека/Подсказка : XviD
Продолжительность : 22 м.
Битрейт : 1725 Кбит/сек
Ширина : 720 пикселей
Высота : 400 пикселей
Соотношение сторон : 16:9
Частота кадров : 25,000 кадров/сек
Цветовое пространство : YUV
Субдискретизация насыщенности : 4:2:0
Битовая глубина : 8 бит
Тип развёртки : Прогрессивная
Метод сжатия : С потерями
Бит/(Пиксели*Кадры) : 0.240
Размер потока : 278 Мбайт (81%)
Библиотека кодирования : XviD 1.2.1 (UTC 2008-12-04)
Аудио #1
Идентификатор : 1
Формат : AC-3
Формат/Информация : Audio Coding 3
Расширение режима : CM (complete main)
Параметр Endianness формата : Big
Идентификатор кодека : 2000
Продолжительность : 22 м.
Вид битрейта : Постоянный
Битрейт : 192 Кбит/сек
Каналы : 2 канала
Расположение каналов : Front: L R
Частота : 48,0 КГц
Битовая глубина : 16 бит
Метод сжатия : С потерями
Размер потока : 30,9 Мбайт (9%)
Выравнивание : Разделение по промежуткам
Продолжительность промежутка : 40 мс. (1,00 видеокадр)
Время предзагрузки промежутка : 500 мс.
Аудио #2
Идентификатор : 2
Формат : AC-3
Формат/Информация : Audio Coding 3
Расширение режима : CM (complete main)
Параметр Endianness формата : Big
Идентификатор кодека : 2000
Продолжительность : 22 м.
Вид битрейта : Постоянный
Битрейт : 192 Кбит/сек
Каналы : 2 канала
Расположение каналов : Front: L R
Частота : 48,0 КГц
Битовая глубина : 16 бит
Метод сжатия : С потерями
Размер потока : 30,9 Мбайт (9%)
Выравнивание : Разделение по промежуткам
Продолжительность промежутка : 40 мс. (1,00 видеокадр)
Время предзагрузки промежутка : 500 мс.
Добро пожаловать в рай! Это летний заброшенный пансионат 19 века. Многие годы в этом доме останавливались туристы, но почти 10 лет он пустует.
Теперь хозяин решил снести дом и компания «Danley» участвует в торгах.

Сегодня команда фирмы «Danley» делает ставку на снос огромного фермерского дома 30-х годов 18 века в Хэмптоне штат Нью- Гэмпшир.
Владелец дома- пилот, стремится потратить на снос дома, как можно меньшую сумму, чтобы построить для своей семьи дом получше. Компания,
способная сделать работу за наименьшую сумму получит контракт.

Сегодня парни делают ставки на снос двухэтажного дома 40-х годов, на берегу у озера, окруженного домами за миллионы долларов. Работа непроста.
Выигравшая команда не имеет право уронить в воду ни одного обломка, так как дом содержит токсины, которые могут быть вредными для растений и рыб
в озере.

В этот раз Брайан и Ли встречаются с представителями Нью – Гэмпширского университета, чтобы сделать ставку на снос трехэтажного здания 20- х годов.
Две другие фирмы уже подали свои заявки, если их ставка окажется ниже, чем у остальных – они получат этот подряд.

Сегодня Брайан и Ли встречаются с другом Ли - Дэном, чтобы обсудить снос его старого, сдававшегося в аренду дома.Что принесет им удача в этот раз?
Кажется, что из дома вынесены все вещи. Неужели там ничего не осталось?

Сегодня Брайан и Ли оказались в южном Нью-Гэмпшире, чтобы получить подряд на семикомнатную усадьбу построенную в начале 19 века.
Им сообщили, что покойный владелец был крупным коллекционером военных предметов, но после того как он скончался к содержимому здания не притрагивались несколько лет. Однако недавно владение было приобретено местной школой, которая хочет сравнять его с землёй и устроить парковку на месте дома.

Сегодня Ли и Брайан делают ставки на снос сгоревшего двухэтажного дома, который нужно снести, чтобы владелец мог его перестроить. Но владелец не
хочет платить много и как обычно контракт получит тот, кто запросит меньше.

Сегодня фирма «Danley» делает ставку на снос 3-х этажного дома серьёзно поврежденного пожаром. Отличная работенка. Золотая жила. Район богатый и
обеспеченный. Жильцы получили страховку и съехали. Страховка богатых домовладельцев обычно покрывает стоимость всех ценных вещей в доме, поэтому
после её выплаты хозяин может просто всё бросить, а это очень любят компании по сносу зданий, которым достаются права на всё, что хозяева оставили.

Сегодня Ли и Брайан приехали в Клермон, чтобы сделать ставку на снос старой бумажной фабрики. Хозяин хочет заплатить за снос как можно меньше.
Чтобы получить контракт, фирме по сносу нужно заявить минимальную цену.

Ли и Брайан подают заявку на закрытых торгах на снос здания полицейского участка. Но там команде приходится спасаться от роя пчел.
Сегодня «Danley» делает ставку на снос небольшого 3-х комнатного домика в Тингсборо штат Массачусетс. Дом сносят, потому что владелец получил
разрешение на постройку ресторана. Хозяин стремится заплатить за снос дома как можно меньше, так что фирма предложившая минимальную цену получает
заказ.

Download / Скачать

Хотите скачать бесплатно? Зарегистрируйтесь на сайте (ссылка на регистрацию). Pirat.ca - самый быстрый торрент трекер в рунете!

Как скачивать  ·   Что такое торрент  ·   Рейтинг и ограничения

Pit

Пост 10-Фев-2014 21:23 (спустя 3 дня)

[Q] 

На любителя Спасибо!!! для одного раза сойдёт
[Профиль]  [ЛС] 
Показать сообщения:    
Ответить на тему

Текущее время: Сегодня 04:23

Часовой пояс: GMT + 4



Вы не можете начинать темы
Вы не можете отвечать на сообщения
Вы не можете редактировать свои сообщения
Вы не можете удалять свои сообщения
Вы не можете голосовать в опросах
Вы не можете прикреплять файлы к сообщениям
Вы не можете скачивать файлы

▼ Вниз