ML
     
  Уважаемый Гость!
Вы можете поддержать проект и зарегистрироваться у наших партнеров - онлайн-стратегия MyLands. При регистрации в игре Вы получите код, который сможете активировать после регистрации на pirat.ca и получить 1000 дублонов.

Ваш код:
a6d1ef7ff63e237add5a4c8b21d8aa937c5e9b4b
 
     

National Geographic: Самые странные в мире: Секс по дружбе / National Geographic: World's Weirdest: Friends With Benefits / (Ник Паттерсон) [2013 г., Документальный, HDTVRip] VO

Ответить на тему
 
Автор
Сообщение

Пост 15-Фев-2014 12:06

[Q] 

Seva78

-National Geographic: Самые странные в мире: Секс по дружбе / National Geographic: World's Weirdest: Friends With Benefits--
Производство: США, Beyond Productions for National Geographic Channel
Жанр: Документальный,флора,фауна,природа
Год выпуска: 2012 г.
Продолжительность: 00:43:58
Мировая премьера: 2012 Июнь (США)
Перевод: Профессиональный (одноголосый, закадровый)
Режиссер: Ник Паттерсон
-В ролях: Зверюшки
-Описание: Кто из животных ведет самую странную личную жизнь? У многих видов самки намного более неразборчивы в половых партнерах, чем можно было это предположить! Что трудно назвать спокойным и мирным соитием? Ведут ли эти животные себя плохо, или это путь к воспроизведению, столь фундаментальный в животном мире....
-
Качество видео: HDTVRip
Контейнер: AVI
Видео кодек: XviD
Аудио кодек: AC3
Видео: MPEG-4 Visual at 1716 Кбит/сек 720 x 400 (1.800) at 25.000 fps
Аудио: AC-3 at 192 Кбит/сек 2 канала, 48,0 КГц
Cубтитры: отсутствуют

Формат : AVI
Формат/Информация : Audio Video Interleave
Размер файла : 603 Мбайт
Продолжительность : 43 м.
Общий поток : 1918 Кбит/сек
Название фильма : World's.Weirdest.Friends.With.Benefits.2013.HDTVRip
Режиссёр : rip by maygli
Программа кодирования : VirtualDubModRus 1.5.10.2 (build 2542/release)
Правообладатель : www.starbit.org (RG Rulya74)
Видео
Идентификатор : 0
Формат : MPEG-4 Visual
Профиль формата : Advanced [email protected]
Параметр BVOP формата : 1
Параметр QPel формата : Нет
Параметр GMC формата : Без точки перехода
Параметр матрицы формата : Выборочная
Идентификатор кодека : XVID
Идентификатор кодека/Подсказка : XviD
Продолжительность : 43 м.
Битрейт : 1716 Кбит/сек
Ширина : 720 пикселей
Высота : 400 пикселей
Соотношение сторон : 16:9
Частота кадров : 25,000 кадров/сек
Цветовое пространство : YUV
Субдискретизация насыщенности : 4:2:0
Битовая глубина : 8 бит
Тип развёртки : Прогрессивная
Метод сжатия : С потерями
Бит/(Пиксели*Кадры) : 0.238
Размер потока : 540 Мбайт (89%)
Библиотека кодирования : XviD 65
Аудио
Идентификатор : 1
Формат : AC-3
Формат/Информация : Audio Coding 3
Расширение режима : CM (complete main)
Параметр Endianness формата : Big
Идентификатор кодека : 2000
Продолжительность : 43 м.
Вид битрейта : Постоянный
Битрейт : 192 Кбит/сек
Каналы : 2 канала
Расположение каналов : Front: L R
Частота : 48,0 КГц
Битовая глубина : 16 бит
Метод сжатия : С потерями
Размер потока : 60,4 Мбайт (10%)
Выравнивание : Разделение по промежуткам
Продолжительность промежутка : 40 мс. (1,00 видеокадр)
Время предзагрузки промежутка : 500 мс.
Заголовок : Профессиональный (многоголосый закадровый)
Download / Скачать

Хотите скачать бесплатно? Зарегистрируйтесь на сайте (ссылка на регистрацию). Pirat.ca - самый быстрый торрент трекер в рунете!

Как скачивать  ·   Что такое торрент  ·   Рейтинг и ограничения

Показать сообщения:    
Ответить на тему

Текущее время: Сегодня 13:35

Часовой пояс: GMT + 4



Вы не можете начинать темы
Вы не можете отвечать на сообщения
Вы не можете редактировать свои сообщения
Вы не можете удалять свои сообщения
Вы не можете голосовать в опросах
Вы не можете прикреплять файлы к сообщениям
Вы не можете скачивать файлы

▼ Вниз