ML
     
  Уважаемый Гость!
Вы можете поддержать проект и зарегистрироваться у наших партнеров - онлайн-стратегия MyLands. При регистрации в игре Вы получите код, который сможете активировать после регистрации на pirat.ca и получить 1000 дублонов.

Ваш код:
cc3be08b7507661c03e0a2f582d0da3a659ea55a
 
     

В объективе: необычное поведение животных / Caught In The Act (Сезон: 1 / Серии: 1-8) (Сидней Суисса / Sydney Suissa) [2009 г., Документальный, научно-популярный, SATRip] VO

Ответить на тему
 
Автор
Сообщение

Пост 10-Янв-2012 01:44

[Q] 

UcrusPazzo

В объективе: необычное поведение животных / Caught In The Act -Год выпуска: 2009
Производство: США, Aquavision TV and Parthenon Ent. Ltd for National Geographic channel
Жанр: Документальный, научно-популярный
Продолжительность: 8 серий ~ по 00:46:00, общее время - 06:14:10
Перевод: Любительский (одноголосый, закадровый)
Субтитры: отсутствуют-Режиссер: Сидней Суисса / Sydney Suissa-В ролях: Звери, исследователи-Описание: В дикой природе жизнь течет быстро. Чтобы запечатлеть диких животных на камеру, профессионалы подолгу выжидают в труднопроходимой местности. Наградой за их упорство, могут стать кадры, от которых захватывает дух. Но вовсе не обязательно проводить месяцы спрятавшись в укрытии, чтобы запечатлеть невероятное поведение животных. Целая армия отпускников и искателей приключений наталкиваются на невероятные сцены и эти записи позволяют взглянуть на дикую природу с другой стороны.
Список серий и описание:
1. Настоящая Африка
Побережье южной Африки - место, где обитает одна из самых смертельных хищников океана - белая акула.
2. Сила духа
В дикой природе размер ничего не говорит о силе духа. Группа полосатых мангустов бесстрашно сражается даже со смертельно опасными кобрами.
3. Неожиданные противники
Группа ученых-натуралистов исследует случаи самого необычного поведения животных, попавшие в объектив кинокамеры.
4. Странные выходки
Станьте очевидцами редких моментов в поведении животных - от смешных трюков до самых странных выходок.
5. Дикость в чистом виде
Следите за жизнью и невероятным поведением животных - от льва, похищающего детеныша бегемота, до двухголовой змеи.
6. Опасные игры
Смотрите поразительные кадры, снятые исследователями поведения животных и случайными очевидцами, включая нападение гиеновых собак на слонов.
7. Жизнь на воле
Обширное побережье южной Африки дает убежище хищникам всех форм и размеров.
8. Звериные причуды
Львы - самые большие из африканских хищников и единственные представители кошачьих, которые живут и охотятся группами.-Источник/Качество: SATRip
Формат: AVI
Видео кодек: XviD
Аудио кодек: MP3
Видео: 720x432 (1.67:1), 25 fps, XviD build 50 ~867 kbps avg, 0.11 bit/pixel
Аудио: 48 kHz, MPEG Layer 3, 1 ch, ~128.00 kbps avg
Общее
Формат : AVI
Формат/Информация : Audio Video Interleave
Размер файла : 328 Мбайт
Продолжительность : 45 м.
Общий поток : 1005 Кбит/сек
Программа кодирования : VirtualDubMod 1.5.10.2 (build 2542/release)
Библиотека кодирования : VirtualDubMod build 2542/release
Видео
Идентификатор : 0
Формат : MPEG-4 Visual
Профиль формата : Advanced [email protected]
Параметр BVOP формата : 2
Параметр QPel формата : Нет
Параметр GMC формата : Без точки перехода
Параметр матрицы формата : Default (MPEG)
Идентификатор кодека : XVID
Идентификатор кодека/Подсказка : XviD
Продолжительность : 45 м.
Битрейт : 867 Кбит/сек
Ширина : 720 пикселей
Высота : 432 пикселя
Соотношение сторон : 1,667
Частота кадров : 25,000 кадров/сек
Цветовое пространство : YUV
Субдискретизация насыщенности : 4:2:0
Битовая глубина : 8 бит
Тип развёртки : Прогрессивная
Метод сжатия : С потерями
Бит/(Пиксели*Кадры) : 0.112
Размер потока : 283 Мбайт (86%)
Библиотека кодирования : XviD 1.2.1 (UTC 2008-12-04)
Аудио
Идентификатор : 1
Формат : MPEG Audio
Версия формата : Version 1
Профиль формата : Layer 3
Идентификатор кодека : 55
Идентификатор кодека/Подсказка : MP3
Продолжительность : 45 м.
Вид битрейта : Постоянный
Битрейт : 128 Кбит/сек
Каналы : 1 канал
Частота : 48,0 КГц
Метод сжатия : С потерями
Задержка видео : 8 мс.
Размер потока : 41,8 Мбайт (13%)
Выравнивание : Разделение по промежуткам
Продолжительность промежутка : 40 мс. (1,00 видеокадр)
Время предзагрузки промежутка : 500 мс.
Библиотека кодирования : LAME3.98.2ЄЄЄЄЄЄЄЄЄЄ
Download / Скачать

Хотите скачать бесплатно? Зарегистрируйтесь на сайте (ссылка на регистрацию). Pirat.ca - самый быстрый торрент трекер в рунете!

Как скачивать  ·   Что такое торрент  ·   Рейтинг и ограничения



Последний раз редактировалось: UcrusPazzo (2013-02-10 21:53), всего редактировалось 1 раз

vit70

Лоцман

Пост 20-Фев-2012 20:19 (спустя 1 месяц 10 дней)

[Q] 

Спасибо, посмотрим!
[Профиль]  [ЛС] 

ChinChin

Юнга

Пост 10-Фев-2013 15:18 (спустя 11 месяцев 18 дней)

[Q] 

[Профиль]  [ЛС] 

UcrusPazzo ®

7670

Пост 10-Фев-2013 22:31 (спустя 7 часов)

[Q] 

ChinChin, пожалуйста. Еще бы кнопочку "Спасибо" нажимали, было бы вообще круто! )))

_________________
[Профиль]  [ЛС] 

ChinChin

Юнга

Пост 10-Фев-2013 23:07 (спустя 35 минут)

[Q] 

ChinChin, пожалуйста. Еще бы кнопочку "Спасибо" нажимали, было бы вообще круто! )))
Исправился =)
Скачал для семейного просмотра. Сегодня за ужином посмортели первую часть. Всем понравилось. Рекомендую
[Профиль]  [ЛС] 

lo.oktosky

Морской Волк

Пост 14-Апр-2014 12:23 (спустя 1 год 2 месяца)

[Q] 

отлично!
интересно и оригинально.
прекрасный пример документалистики.
на 5 anime87
Раздающему респект!
Добавлено спустя 3 минуты 57 секунд:
еще бы НЕафрики поболе.
может в след сезонах исправятся )
[Профиль]  [ЛС] 
Показать сообщения:    
Ответить на тему

Текущее время: Сегодня 05:09

Часовой пояс: GMT + 4



Вы не можете начинать темы
Вы не можете отвечать на сообщения
Вы не можете редактировать свои сообщения
Вы не можете удалять свои сообщения
Вы не можете голосовать в опросах
Вы не можете прикреплять файлы к сообщениям
Вы не можете скачивать файлы

▼ Вниз