ML
     
  Уважаемый Гость!
Вы можете поддержать проект и зарегистрироваться у наших партнеров - онлайн-стратегия MyLands. При регистрации в игре Вы получите код, который сможете активировать после регистрации на pirat.ca и получить 1000 дублонов.

Ваш код:
822959f93c00d34653763d5bbf9ee9a7134af98a
 
     

Дневники круизного лайнера / Cruise Ship Diaries (Costa Serena) (Сезон: 1 / Серии: 1-6) (National Geographic) [2009 г., Документальный, научно-популярный, SATRip] MVO

Ответить на тему
 
Автор
Сообщение

Пост 26-Янв-2012 18:53

[Q] 

UcrusPazzo

Дневники круизного лайнера / Cruise Ship Diaries (Costa Serena) -Год выпуска: 2009
Производство: США, National Geographic Channel
Жанр: Документальный, научно-популярный
Продолжительность серии: 6 серий ~ по 00:46:00, общее время - 04:40:31
Перевод: Профессиональный (одноголосый, закадровый)
Оригинальный аудиопоток: английский
Субтитры: отсутствуют-Режиссер: National Geographic-Описание: Плавучий небоскреб, он же корабль-город, он же большой автономный мир на воде, он же гигантский лайнер класса «премиум». Не всякий удостаивается возможности пойти в круиз на этом первоклассном, комфортном корабле. Мы все видим эту роскошь, новейшие технологии и достижения науки, которые применялиcь при создании этого чуда, но что же происходит "за кадром", кто обеспечивает все то, чем наслаждаются отдыхающие, кто обеспечивает комфорт и уют и каких трудов все это стоит? Об этом и не только повествуют несколько интересных историй.-Описание серий:
Сезон свадебных путешествий / Honeymoon Season
Коста Серена - один из самых больших круизных кораблей в мире. Стоимость - свыше 450-ти млн. евро. Сплошная роскошь во всём. Приближается период плохой погоды, и команду одного из крупнейших океанических лайнеров , ждёт трудный сезон свадебных путешествий.
Инспекторы на корабле / Inspectors On Board
С 3800 пассажирами в каждом круизе команда корабля Коста Серена работает на пределе сил, а инспекция только осложняет дело.
ЧП на борту / Magic and Mayhem
После отплытия из Венеции у команды Коста Серены начинаются неприятности. Новое иллюзион-шоу и внезапная смерть на борту нарушают все их планы.
Рок-концерт / Rock-concert
Отдел организации развлечений работает в две смены, и экипажу приходится терпеть дополнительный стресс из-за присутствия рок-группы на борту.
Грязные танцы / Dirty Dancing
В то время как судно покидает Венецию, придирчивые пассажиры и эксцентричный конферансье испытывают терпение капитана Руссо и его команды.
Последний отсчёт / Final Countdown
Следите за повседневными заботами и проблемами команды Коста Серены - одного из самых крупных круизных лайнеров в мире.-Источник/Качество: SATRip
Формат: AVI
Видео кодек: XviD
Аудио кодек: MP3
Видео: 720x416 (1.73:1), 25 fps, XviD build 55 ~1828 kbps avg, 0.24 bit/pixel
Аудио: 48 kHz, MPEG Layer 3, 2 ch, ~128.00 kbps avg Russian (Все серии одинаковы по данным)
Аудио #2: 48 kHz, MPEG Layer 3, 2 ch, ~128.00 kbps avg English
Общее
Формат : AVI
Формат/Информация : Audio Video Interleave
Размер файла : 665 Мбайт
Продолжительность : 45 м.
Общий поток : 2034 Кбит/сек
Программа кодирования : VirtualDubMod 1.5.10.2 (build 2542/release)
Библиотека кодирования : VirtualDubMod build 2542/release
Видео
Идентификатор : 0
Формат : MPEG-4 Visual
Профиль формата : Advanced [email protected]
Параметр BVOP формата : 1
Параметр QPel формата : Нет
Параметр GMC формата : Без точки перехода
Параметр матрицы формата : Выборочная
Идентификатор кодека : XVID
Идентификатор кодека/Подсказка : XviD
Продолжительность : 45 м.
Битрейт : 1829 Кбит/сек
Ширина : 720 пикселей
Высота : 416 пикселей
Соотношение сторон : 16:9
Частота кадров : 25,000 кадров/сек
Цветовое пространство : YUV
Субдискретизация насыщенности : 4:2:0
Битовая глубина : 8 бит
Тип развёртки : Прогрессивная
Метод сжатия : С потерями
Бит/(Пиксели*Кадры) : 0.244
Размер потока : 598 Мбайт (90%)
Библиотека кодирования : XviD 1.3.0.dev55
Аудио #1
Идентификатор : 1
Формат : MPEG Audio
Версия формата : Version 1
Профиль формата : Layer 3
Режим : Joint stereo
Расширение режима : MS Stereo
Идентификатор кодека : 55
Идентификатор кодека/Подсказка : MP3
Продолжительность : 45 м.
Вид битрейта : Постоянный
Битрейт : 128 Кбит/сек
Каналы : 2 канала
Частота : 48,0 КГц
Метод сжатия : С потерями
Размер потока : 41,8 Мбайт (6%)
Выравнивание : Соединение по промежуткам
Продолжительность промежутка : 40 мс. (1,00 видеокадр)
Время предзагрузки промежутка : 504 мс.
Библиотека кодирования : LAME‘(—P’‰wйби.C
Аудио #2
Идентификатор : 2
Формат : MPEG Audio
Версия формата : Version 1
Профиль формата : Layer 3
Режим : Joint stereo
Расширение режима : MS Stereo
Идентификатор кодека : 55
Идентификатор кодека/Подсказка : MP3
Продолжительность : 23 м.
Вид битрейта : Постоянный
Битрейт : 128 Кбит/сек
Каналы : 2 канала
Частота : 48,0 КГц
Метод сжатия : С потерями
Размер потока : 21,3 Мбайт (3%)
Выравнивание : Соединение по промежуткам
Продолжительность промежутка : 79 мс. (1,97 видеокадра)
Время предзагрузки промежутка : 504 мс.
Download / Скачать

Хотите скачать бесплатно? Зарегистрируйтесь на сайте (ссылка на регистрацию). Pirat.ca - самый быстрый торрент трекер в рунете!

Как скачивать  ·   Что такое торрент  ·   Рейтинг и ограничения

Sl

Лоцман

Пост 09-Фев-2012 16:11 (спустя 13 дней)

[Q] 

Спасибо. Давно хотел посмотреть.
[Профиль]  [ЛС] 
Показать сообщения:    
Ответить на тему

Текущее время: Сегодня 05:55

Часовой пояс: GMT + 4



Вы не можете начинать темы
Вы не можете отвечать на сообщения
Вы не можете редактировать свои сообщения
Вы не можете удалять свои сообщения
Вы не можете голосовать в опросах
Вы не можете прикреплять файлы к сообщениям
Вы не можете скачивать файлы

▼ Вниз