ML
     
  Уважаемый Гость!
Вы можете поддержать проект и зарегистрироваться у наших партнеров - онлайн-стратегия MyLands. При регистрации в игре Вы получите код, который сможете активировать после регистрации на pirat.ca и получить 1000 дублонов.

Ваш код:
a01a592a88af5f9996a6d1baec61b18a1769954d
 
     

2210: Конец света? / Collapse: Based on the Book by Jared Diamond (Ноел Докстедер / Noel Dockstader) [2010, Документальный, HDTVRip, 720p]

Ответить на тему
 
Автор
Сообщение

Пост 29-Окт-2011 20:23

[Q] 

UcrusPazzo

2210: Конец света? / Collapse: Based on the Book by Jared Diamond -Год выпуска: 2010
Производство: США, Far West Film Co., National Geographic Television
Премьера (мир): 18 сентября 2010
Жанр: Документальный
Продолжительность: 01:33:33
Перевод: Профессиональный (одноголосый)
Оригинальный аудиопоток: Английский-Режиссер: Ноел Докстедер / Noel Dockstader
Сценарий: Ноэль Докстейдер, Куинн Кэнэли
Продюсер: Ноэль Докстейдер, Куинн Кэнэли
Оператор: Роб Голди, Йен Керр, Dave Linstrom
Композитор: Christopher Rife
Монтаж: Стив Иглтон-В ролях: Ricardo Agurcia, Jamie Effros, Дэвид Грегори, James Howard Kunstler, Stephen Lekson, Джозеф Тейнтер, Стюарт Вулф-Описание: Что бы понять что такое конец света, представим, что он уже наступил. Закат цивилизации мог быть вызван многими причинами. Какая же из них главная? Многие высокоразвитые цивилизации прошлого, прекратили свое существование, а ведь кто во время расцвета Римской империи или цивилизации Майя мог предположить, что они рухнут и все же это произошло. В чем секрет процветания и упадка цивилизаций прошлого? Ученые в 2210 году откапывают руины великой цивилизации. Что смогут они рассказать о причинах гибели того мира, в котором мы сейчас живем?-Источник/Качество: HDTVRip
Формат: MKV
Стандарт разрешения: 720p
Видео кодек: AVC
Аудио кодек: MP3, AC3
Видео: English, 3150 Кбит/сек, 1280*720 (16:9), в 25,000 кадров/сек, AVC ([email protected])(CABAC / 5 RefFrames)
Аудио Russian: 128 Кбит/сек, 48,0 КГц, 16 бит, 2 канала, MPEG Audio (MP3)(Version 1)(Layer 3)
Аудио English: 192 Кбит/сек, 48,0 КГц, 16 бит, 2 канала, AC-3
Субтитры: нет
Общее
Уникальный идентификатор : 185915119872127983732647428756241727441 (0x8BDDF31C1B0864CF97D6360D62793FD1)
Формат : Matroska
Версия формата : Version 1
Размер файла : 2,27 Гбайт
Продолжительность : 1 ч. 33 м.
Общий поток : 3475 Кбит/сек
Дата кодирования : UTC 2010-12-29 10:25:53
Программа кодирования : mkvmerge v2.1.0 ('Another Place To Fall') built on Aug 19 2007 13:40:07
Библиотека кодирования : libebml v0.7.7 + libmatroska v0.8.1
Видео
Идентификатор : 1
Формат : AVC
Формат/Информация : Advanced Video Codec
Профиль формата : [email protected]
Параметр CABAC формата : Да
Параметр ReFrames формата : 5 кадров
Идентификатор кодека : V_MPEG4/ISO/AVC
Продолжительность : 1 ч. 33 м.
Битрейт : 3150 Кбит/сек
Ширина : 1280 пикселей
Высота : 720 пикселей
Соотношение сторон : 16:9
Частота кадров : 25,000 кадров/сек
Цветовое пространство : YUV
Субдискретизация насыщенности : 4:2:0
Битовая глубина : 8 бит
Тип развёртки : Прогрессивная
Бит/(Пиксели*Кадры) : 0.137
Размер потока : 2,02 Гбайт (89%)
Библиотека кодирования : x264 core 107 r1772 c9dad9e
Настройки программы : cabac=1 / ref=5 / deblock=1:0:0 / analyse=0x3:0x133 / me=umh / subme=7 / psy=1 / psy_rd=1.00:0.00 / mixed_ref=1 / me_range=16 / chroma_me=1 / trellis=1 / 8x8dct=1 / cqm=0 / deadzone=21,11 / fast_pskip=0 / chroma_qp_offset=-2 / threads=6 / sliced_threads=0 / nr=0 / decimate=1 / interlaced=0 / constrained_intra=0 / bframes=3 / b_pyramid=2 / b_adapt=1 / b_bias=0 / direct=1 / weightb=1 / open_gop=0 / weightp=2 / keyint=250 / keyint_min=25 / scenecut=40 / intra_refresh=0 / rc_lookahead=40 / rc=2pass / mbtree=1 / bitrate=3150 / ratetol=1.0 / qcomp=0.60 / qpmin=10 / qpmax=51 / qpstep=4 / cplxblur=20.0 / qblur=0.5 / ip_ratio=1.40 / aq=1:1.00
Язык : English
Аудио #1
Идентификатор : 2
Формат : MPEG Audio
Версия формата : Version 1
Профиль формата : Layer 3
Идентификатор кодека : A_MPEG/L3
Идентификатор кодека/Подсказка : MP3
Продолжительность : 1 ч. 33 м.
Вид битрейта : Постоянный
Битрейт : 128 Кбит/сек
Каналы : 2 канала
Частота : 48,0 КГц
Метод сжатия : С потерями
Размер потока : 85,9 Мбайт (4%)
Библиотека кодирования : LAME3.98r
Настройки программы : -m s -V 4 -q 2 -lowpass 17 -b 128
Язык : Russian
Аудио #2
Идентификатор : 3
Формат : AC-3
Формат/Информация : Audio Coding 3
Расширение режима : CM (complete main)
Идентификатор кодека : A_AC3
Продолжительность : 1 ч. 33 м.
Вид битрейта : Постоянный
Битрейт : 192 Кбит/сек
Каналы : 2 канала
Расположение каналов : Front: L R
Частота : 48,0 КГц
Битовая глубина : 16 бит
Метод сжатия : С потерями
Размер потока : 128 Мбайт (6%)
Язык : English
Download / Скачать

Хотите скачать бесплатно? Зарегистрируйтесь на сайте (ссылка на регистрацию). Pirat.ca - самый быстрый торрент трекер в рунете!

Как скачивать  ·   Что такое торрент  ·   Рейтинг и ограничения



Последний раз редактировалось: UcrusPazzo (2013-09-18 23:17), всего редактировалось 4 раз(а)

UcrusPazzo ®

7670

Пост 07-Ноя-2011 02:09 (спустя 8 дней)

[Q] 

Внимание!!!
Торрент перезалит по причите....
Читайте тут Внимание! Просьба перезалить торрент файлы за последнюю неделю.

_________________
[Профиль]  [ЛС] 

vol470

Шкипер

Пост 22-Дек-2012 01:39 (спустя 1 год 1 месяц)

[Q] 

[Профиль]  [ЛС] 
Показать сообщения:    
Ответить на тему

Текущее время: Сегодня 09:50

Часовой пояс: GMT + 4



Вы не можете начинать темы
Вы не можете отвечать на сообщения
Вы не можете редактировать свои сообщения
Вы не можете удалять свои сообщения
Вы не можете голосовать в опросах
Вы не можете прикреплять файлы к сообщениям
Вы не можете скачивать файлы

▼ Вниз