ML
     
  Уважаемый Гость!
Вы можете поддержать проект и зарегистрироваться у наших партнеров - онлайн-стратегия MyLands. При регистрации в игре Вы получите код, который сможете активировать после регистрации на pirat.ca и получить 1000 дублонов.

Ваш код:
0fcd44bd35319f69313aa6e53b31c51cbff1c942
 
     

Nat Geo Wild: Мир дикой природы / World of the Wild / Сезон: 1 / Серии: 1-13 из 13 (Макс Серио, Беттина Далтон) [2016 г., Документальный, HDTVRip] VO

Ответить на тему
 
Автор
Сообщение

Пост 06-Окт-2016 06:52

[Q] 

somik

Легенда

-Nat Geo Wild: Мир дикой природы / World of the Wild-- Производство: Австралия, WildBear Entertainment & KM Records a.s.
Жанр: Документальный
Год выпуска: 2016 г.
Продолжительность: 00:21:59
Перевод: Профессиональный (одноголосый, закадровый)
Режиссер: Макс Серио, Беттина Далтон-Описание: Мы внимательно изучим важнейшую для планеты хрупкую взаимосвязь между животным миром и окружающей средой.-
Качество видео: HDTVRip
Контейнер: AVI
Видео кодек: XviD
Аудио кодек: AC3
Видео: 720x400 (1.80:1), 25 fps, XviD build 50 ~1799 kbps avg, 0.25 bit/pixel
Аудио: 48 kHz, AC3 Dolby Digital, 2/0 (L,R) ch, ~192 kbps
Cубтитры: отсутствуют
Общее
Полное имя : E:\Мир дикой природы\World of the Wild.2016.HDTVRip.[pirat.ca]\01_Amazon Rainforest.HDTVRip.[pirat.ca].avi
Формат : AVI
Формат/Информация : Audio Video Interleave
Размер файла : 315 Мбайт
Продолжительность : 21 м.
Общий поток : 2001 Кбит/сек
Программа кодирования : VirtualDubMod 1.5.10.3 | www.virtualdub-fr.org || (build 2550/release)
Библиотека кодирования : VirtualDubMod build 2550/release
Видео
Идентификатор : 0
Формат : MPEG-4 Visual
Профиль формата : Advanced [email protected]
Параметр BVOP формата : 1
Параметр QPel формата : Нет
Параметр GMC формата : Без точки перехода
Параметр матрицы формата : Default (MPEG)
Идентификатор кодека : XVID
Идентификатор кодека/Подсказка : XviD
Продолжительность : 21 м.
Битрейт : 1800 Кбит/сек
Ширина : 720 пикселей
Высота : 400 пикселей
Соотношение сторон : 16:9
Частота кадров : 25,000 кадров/сек
Цветовое пространство : YUV
Субдискретизация насыщенности : 4:2:0
Битовая глубина : 8 бит
Тип развёртки : Прогрессивная
Метод сжатия : С потерями
Бит/(Пиксели*Кадры) : 0.250
Размер потока : 283 Мбайт (90%)
Библиотека кодирования : XviD 1.2.1 (UTC 2008-12-04)
Аудио
Идентификатор : 1
Формат : AC-3
Формат/Информация : Audio Coding 3
Расширение режима : CM (complete main)
Параметр Endianness формата : Big
Идентификатор кодека : 2000
Продолжительность : 21 м.
Вид битрейта : Постоянный
Битрейт : 192 Кбит/сек
Каналы : 2 канала
Расположение каналов : Front: L R
Частота : 48,0 КГц
Частота кадров : 31,250 кадров/сек (1536 spf)
Метод сжатия : С потерями
Размер потока : 30,2 Мбайт (10%)
Выравнивание : Разделение по промежуткам
Продолжительность промежутка : 40 мс. (1,00 видеокадр)
Время предзагрузки промежутка : 500 мс.
Содержание:
01. Амазонские джунгли / Amazon Rainforest
Амазонские джунгли - это самый большой тропический лес в мире. Он стал домом для огромного количества микроорганизмов и животных.
02. Африканская саванна / Great African Savannah
Леса и равнины африканской саванны раскинулись на 25 стран, где дикие животные приспосабливаются к суровым условиям.
03. Большой Барьерный риф / Great Barrier Reef
Простираясь на расстояние более 2300 км, Большой Барьерный риф стал самой крупной системой коралловых рифов и домом для уникальных организмов.
04. Арктика / Arctic
Благодаря вечной мерзлоте, которая защищает её от людей, Арктика остаётся самым негостеприимным местом на Земле.
05. Американские прерии / American Prairie
Скудные осадки в прериях создали уникальную экосистему, ставшую домом бизонам, лисам, лысым орлам и диким лошадям.
06. Джунгли Азии / Jungles of Asia
Отправляйтесь в сердце джунглей, чтобы встретиться с азиатскими слонами, фруктовыми летучими мышами, пауками-скакунами, буйволами и питонами.
07. Открытый океан / Open Ocean
Несмотря на то, что более 70 процентов земного шара покрыто океанами, их подводный мир для нас до сих пор остаётся загадкой.
08. Болота / Wetlands
Болота являются одними из самых богатых экосистем планеты. Эти удивительные места встречаются по всему земному шару.
09. Пустыни / Deserts
Хоть на первый взгляд пустыня и враждебна, но она стала домом огромному количеству разнообразных животных.
10. Хозяева неба / Masters of the Sky
Из-за загрязнения атмосферы и разрушения среды обитания будущее птиц, вроде пеликанов, сипух и стервятников, оказывается под угрозой.
11. Водопой / Freshwaters
Выживание многих видов зависит от их доступа к водопою. Посмотрите, как цапли, стрекозы, утконосы и бегемоты адаптировались к этим условиям.
12. Американские горы / American Mountains
Чтобы жить в горах, животные должны уметь быстро адаптироваться. Выживают лишь те, кто не боится опасностей, вроде медведей, лосей и пум.
13. Мадагаскар / Madagascar
Присоединяйтесь к путешествию сквозь тропические джунгли, высокогорье, чтобы увидеть редких жителей Мадагаскара: хамелеонов, лемуров и мангустов.
Download / Скачать

Хотите скачать бесплатно? Зарегистрируйтесь на сайте (ссылка на регистрацию). Pirat.ca - самый быстрый торрент трекер в рунете!

Как скачивать  ·   Что такое торрент  ·   Рейтинг и ограничения

Показать сообщения:    
Ответить на тему

Текущее время: Сегодня 02:13

Часовой пояс: GMT + 4



Вы не можете начинать темы
Вы не можете отвечать на сообщения
Вы не можете редактировать свои сообщения
Вы не можете удалять свои сообщения
Вы не можете голосовать в опросах
Вы не можете прикреплять файлы к сообщениям
Вы не можете скачивать файлы

▼ Вниз