ML
     
  Уважаемый Гость!
Вы можете поддержать проект и зарегистрироваться у наших партнеров - онлайн-стратегия MyLands. При регистрации в игре Вы получите код, который сможете активировать после регистрации на pirat.ca и получить 1000 дублонов.

Ваш код:
8dcb839cf1b47e56d6dc42d17f26b3e4822e9aee
 
     

Земные катаклизмы / EarthShocks / Unser Planet - Naturgewalten (Сезон: 1 / Серии: 1-7) (Бен Фокс / Ben Fox, Шон Тревисик / Shaun Trevisick) [2008 г., Документальный, Природа, Катастрофа, HDTVRip] MVO + DVO

Ответить на тему
 
Автор
Сообщение

Пост 16-Фев-2012 01:29

[Q] 

UcrusPazzo

Земные катаклизмы / EarthShocks / Unser Planet - Naturgewalten -Год выпуска: 2008
Производство: Великобритания, Германия, SteadFast Television for National Geographic Channel
Жанр: Документальный, Природа, Катастрофа
Продолжительность серии: 7 серий ~ по 00:46:00, общее время - 05:32:39
Перевод: Профессиональный (одноголосый, закадровый) - 1, 4
Перевод 2: Профессиональный (двухголосый, закадровый) - 2, 3, 5, 6, 7
Автор(ы) перевода: Селена Интернешнл по заказу ТА "Русский репортаж"
Субтитры: отсутствуют-Режиссер: Бен Фокс / Ben Fox, Шон Тревисик / Shaun Trevisick-Описание: "Земные катаклизмы" - цикл программ об истории нашей планеты и о стихийных бедствиях.
-Источник/Качество: HDTVRip
Формат: AVI
Видео кодек: XviD
Аудио кодек: AC3
Видео: 720x400 (1.80:1), 25 fps, XviD build 50 ~2296 kbps avg, 0.32 bit/pixel
Аудио: 48 kHz, AC3 Dolby Digital, 2/0 (L,R) ch, ~192 kbps
Наблюдение за звездой Mira показывает краткий, но чрезвычайно существенный момент в смерти звезд схожих с нашим Солнцем.
File: 01 серия - Гибель звезды Death Of A Star.avi
FileSize: 894.21 Mb ( 937 652 224 bytes )
Play length: 00:50:02.080 (75052 frames)
Subtitles: Not Present
Video: 720x400 (1.80:1), 25 fps, XviD build 50 ~2296 kbps avg, 0.32 bit/pixel
Audio: 48 kHz, AC3 Dolby Digital, 2/0 (L,R) ch, ~192 kbps

Сюжет серии "Гиперураган": учёные предупреждают, что мы находимся посреди цикла возросшей Атлантической штормовой активности. Испытаем ли мы на себе один из самых смертельных ураганных циклов в истории? Ответ на этот вопрос учёные ищут в местах, о которых мы даже не догадываемся...
File: 02 серия - Гипер ураган Hyper Hurricane.avi
FileSize: 810.86 Mb ( 850 249 728 bytes )
Play length: 00:45:36.399 (68410 frames)
Subtitles: Not Present
Video: 720x400 (1.80:1), 25 fps, XviD build 50 ~2283 kbps avg, 0.32 bit/pixel
Audio: 48 kHz, AC3 Dolby Digital, 2/0 (L,R) ch, ~192 kbps

Новые открытия переворачивают наши представления о формировании Американского запада. Наводнения, масштаб которых невозможно представить, грандиозные извержения вулканов, ландшафты напоминающие Марс, эти откровения позволяют предугадать судьбу Земли.
File: 03 серия - Как формировался Запад How the west was made.avi
FileSize: 894.00 Mb ( 937 428 992 bytes )
Play length: 00:50:02.639 (75066 frames)
Subtitles: Not Present
Video: 720x400 (1.80:1), 25 fps, XviD build 50 ~2295 kbps avg, 0.32 bit/pixel
Audio: 48 kHz, AC3 Dolby Digital, 2/0 (L,R) ch, ~192 kbps

Сюжет серии "Кольцо огня": в глубинах Тихого океана от наших глаз скрывается убийца - мощный тектонический разлом, где сосредоточены почти 90% мировых вулканов, около 80% очагов землятресений и почти треть населения Земли. В среднем здесь происходит землятресение или извергается вулкан каждый час. Это - "Кольцо огня". И есть свидетельства того, что сейчас оно в 3 раза более активно, чем когда-либо раньше.
File: 04 серия - Кольцо огня The Ring Of Fire.avi
FileSize: 809.24 Mb ( 848 545 792 bytes )
Play length: 00:45:49.040 (68726 frames)
Subtitles: Not Present
Video: 720x400 (1.80:1), 25 fps, XviD build 50 ~2267 kbps avg, 0.32 bit/pixel
Audio: 48 kHz, AC3 Dolby Digital, 2/0 (L,R) ch, ~192 kbps

Программа об истории нашей планеты и о стихийных бедствиях. 25 лет назад мир потрясло открытие, что удар метеора уничтожил динозавров. Теперь новое исследование поднимает уже другой вопрос "Не могло ли падение метеора стать причиной появления динозавров?".
File: 06 серия - Метеор, создавший динозавров The meteor that made the Dinosaurs.avi
FileSize: 745.96 Mb ( 782 196 736 bytes )
Play length: 00:45:31.719 (68293 frames)
Subtitles: Not Present
Video: 720x400 (1.80:1), 25 fps, XviD build 50 ~2088 kbps avg, 0.29 bit/pixel
Audio: 48 kHz, AC3 Dolby Digital, 2/0 (L,R) ch, ~192 kbps

В самом сердце нашей солнечной системы существует свидетельство, крупнейшей в истории астероидной атаки Земли. Таинственное событие космического масштаба заставило миллионы астероидов сойти с орбит и упасть на Землю. Никто не знает, почему это произошло. Никто не знает, может ли это повториться...
File: 07 серия - Планетарная катастрофа Planet Storm.avi
FileSize: 745.87 Mb ( 782 104 576 bytes )
Play length: 00:45:27.959 (68199 frames)
Subtitles: Not Present
Video: 720x400 (1.80:1), 25 fps, XviD build 50 ~1899 kbps avg, 0.26 bit/pixel
Audio: 48 kHz, AC3 Dolby Digital, 3/2 (L,C,R,l,r) + LFE ch, ~384 kbps

---
Общее
Формат : AVI
Формат/Информация : Audio Video Interleave
Размер файла : 894 Мбайт
Продолжительность : 50 м.
Общий поток : 2499 Кбит/сек
Программа кодирования : VirtualDubModRus 1.5.10.2 (build 2542/release)
Видео
Идентификатор : 0
Формат : MPEG-4 Visual
Профиль формата : Advanced [email protected]
Параметр BVOP формата : 1
Параметр QPel формата : Нет
Параметр GMC формата : Без точки перехода
Параметр матрицы формата : Default (MPEG)
Идентификатор кодека : XVID
Идентификатор кодека/Подсказка : XviD
Продолжительность : 50 м.
Битрейт : 2297 Кбит/сек
Ширина : 720 пикселей
Высота : 400 пикселей
Соотношение сторон : 16:9
Частота кадров : 25,000 кадров/сек
Цветовое пространство : YUV
Субдискретизация насыщенности : 4:2:0
Битовая глубина : 8 бит
Тип развёртки : Прогрессивная
Метод сжатия : С потерями
Бит/(Пиксели*Кадры) : 0.319
Размер потока : 822 Мбайт (92%)
Библиотека кодирования : XviD 1.2.1 (UTC 2008-12-04)
Аудио
Идентификатор : 1
Формат : AC-3
Формат/Информация : Audio Coding 3
Расширение режима : CM (complete main)
Идентификатор кодека : 2000
Продолжительность : 50 м.
Вид битрейта : Постоянный
Битрейт : 192 Кбит/сек
Каналы : 2 канала
Расположение каналов : Front: L R
Частота : 48,0 КГц
Битовая глубина : 16 бит
Метод сжатия : С потерями
Задержка видео : 10 мс.
Размер потока : 68,7 Мбайт (8%)
Выравнивание : Разделение по промежуткам
Продолжительность промежутка : 40 мс. (1,00 видеокадр)
Время предзагрузки промежутка : 500 мс.
Download / Скачать

Хотите скачать бесплатно? Зарегистрируйтесь на сайте (ссылка на регистрацию). Pirat.ca - самый быстрый торрент трекер в рунете!

Как скачивать  ·   Что такое торрент  ·   Рейтинг и ограничения

ksg111ban

Гроза морей

Пост 16-Фев-2012 19:07 (спустя 17 часов)

[Q] 


_________________
[Профиль]  [ЛС] 

leha1975

Гроза морей

3384

Пост 16-Фев-2012 22:18 (спустя 3 часа)

[Q] 


_________________

[Профиль]  [ЛС] 
Показать сообщения:    
Ответить на тему

Текущее время: Сегодня 04:15

Часовой пояс: GMT + 4



Вы не можете начинать темы
Вы не можете отвечать на сообщения
Вы не можете редактировать свои сообщения
Вы не можете удалять свои сообщения
Вы не можете голосовать в опросах
Вы не можете прикреплять файлы к сообщениям
Вы не можете скачивать файлы

▼ Вниз