ML
     
  Уважаемый Гость!
Вы можете поддержать проект и зарегистрироваться у наших партнеров - онлайн-стратегия MyLands. При регистрации в игре Вы получите код, который сможете активировать после регистрации на pirat.ca и получить 1000 дублонов.

Ваш код:
8dcb839cf1b47e56d6dc42d17f26b3e4822e9aee
 
     

Секреты Библии / National Geographic: The Secret Bible (Майкл С. Оджеда / Michael S. Odzhed) (3 серии из 3) [2006 г., документальный, SATRip] MVO

Ответить на тему
 
Автор
Сообщение

Пост 17-Мар-2012 20:55

[Q] 

me14

Секреты Библии / National Geographic: The Secret Bible
Год выпуска: 2006
Производство: США, National Geographic
Жанр: документальный
Продолжительность серии: 3 х ~00:47:00
Перевод: Профессиональный (одноголосый, закадровый)
Субтитры: отсутствуют
Режиссер: Майкл С. Оджеда / Michael S. Odzhed
Описание: Секреты библии. Опираясь на новейшие технологии, ученые исследуют библейские тексты. Цунами, землетрясения, войны и несчастья всюду окружают нас. Но являются ли они признаками надвигающегося "Конца Света", как предсказано в Библии? Действительно ли это Апокалипсис?
Как наступит Апокалипсис? Кто такие тамплиеры? Был ли Иисус единственным пророком и мессией? Об этом и многом другом - в документальном сериале.-
Источник/Качество: SATRip
Формат: AVI
Видео кодек: XviD
Аудио кодек: AC3
Видео: XVID, 720x576, 2 266 Kbps, 25.000 fps
Аудио: AC-3, 48.0 KHz, 384 Kbps, 6 channels
Формат : AVI
Формат/Информация : Audio Video Interleave
Размер файла : 915 MiB
Продолжительность : 48mn 6s
Общий поток : 2 659 Kbps
Video
Идентификатор : 0
Формат : MPEG-4 Visual
Профиль формата : Advanced [email protected]
Параметр BVOP формата : 2
Параметр QPel формата : No
Параметр GMC формата : No warppoints
Параметр матрицы формата : Default (H.263)
Идентификатор кодека : XVID
Идентификатор кодека/Подсказка : XviD
Продолжительность : 48mn 5s
Битрейт : 2 266 Kbps
Ширина : 720 pixels
Высота : 576 pixels
Соотношение сторон : 1.854
Частота кадров : 25.000 fps
Стандарт вещания : PAL
Цветовое пространство : YUV
Подвыборка цветности : 4:2:0
Битовая глубина : 8 bits
Тип развёртки : Progressive
Метод сжатия : Lossy
Бит/(Пиксели*Кадры) : 0.219
Размер потока : 779 MiB (85%)
Библиотека кодирования : XviD 1.2.1 (UTC 2008-12-04)
Audio
Идентификатор : 1
Формат : AC-3
Формат/Информация : Audio Coding 3
Расширение режима : CM (complete main)
Идентификатор кодека : 2000
Продолжительность : 48mn 6s
Вид битрейта : Constant
Битрейт : 384 Kbps
Канал(ы) : 6 channels
Расположение каналов : Front: L C R, Side: L R, LFE
Частота : 48.0 KHz
Битовая глубина : 16 bits
Метод сжатия : Lossy
Размер потока : 132 MiB (14%)
Выравнивание : Aligned on interleaves
Продолжительность промежутка : 40 ms (1.00 video frame)
1. Соперники Христа / Rivals of Jesus: В истории был не единственный мессия. Они так же, как Иисус, исцеляли больных, воскрешали мертвых, и их даже звали "сынами божьими". Так почему же они забыты? Почему только последователи Иисуса из Назарета смогли донести свою идею до наших дней? Аполлоний Тианский, Симон Маг, Тиберий, Изида, Митра, гностики, Константин... Они угрожают разрушить основы самого христианства? Что же это за религии-соперницы? Почему христианство, в конце концов, победило? 2000 лет спустя мы попытаемся пролить свет на тайну соперников Иисуса. Любопытно что согласно фильму, Симон Маг называл себя воплощением Святого Духа, а Иисуса воплощением Святой Троицы. Расказывается история происхождения выражения симония. Интересен и рассказ об ином иудейском мессии, потомке царя Давида и нёсшего не мир, но меч, добившегося на некоторое время независимости Израиля и ведшего партизанские войны с римлянами. Это был Симон Бар-Кохба (сын звезды). У него были сотни тысяч сторонников. Восстание против Рима под руководством Бар-Кохбы происходило в 130 -135 годы н.э. Рассказывается и о сходстве культа Изиды и Богородицы. В частности о том, что прототипами многих икон Богородицы были соответствующие изображения Изиды. Немного говорится о религии мандейцев, существующей до сих пор, последователей которой насчитывается около ста тысяч человек, живущих в настоящее время в Ираке, на нижнем Евфрате. Мандейцы почитают Иоанна Крестителя, но не признают христианства...
2. Тамплиеры / Knights Templar: Тамплиерами (храмовниками) назывались члены католического духовно-рыцарского ордена, основанного в Иерусалиме в 1118 году. Таинственные и могущественные воины-крестоносцы навсегда вошли в историю и стали легендой. По законам, установленным после завоевания Иерусалима, в течение 200 лет тамплиеры владели огромными землями в Европе, от Шотландии и до самой Азии. Однако в начале XIV века Святая Инквизиция обвинила тамплиеров в ереси, поклонении дьяволу и других ужасных преступлениях. Повсюду в Европе совершались жестокие казни над рыцарями, которых сжигали заживо...А что же было на самом деле? Соответствуют ли действительности мифы и легенды о христианских реликвиях и несметных богатствах, связанные с тамплиерами на протяжении многих столетий? Есть ли связь между Масонскими обществами и тамплиерами? Удалось ли тамплиерам добыть знаменитые Туринскую Плащаницу и Священный Грааль? Где спрятаны сокровища тамплиеров?
3. Апокалипсис / Apocalypse: Откровение святого Иоанна Богослова написано сложным языком символов и метафор, а значит, требует толкования. Попытки истолковать Апокалипсис предпринимались в истории Церкви неоднократно. Однако и до сего дня Апокалипсис оставался закрытой – непонятой книгой. И это не удивительно. Ибо пророчества Откровения не могут быть поняты до наступления предсказанных в нем событий. Но, коль скоро пророчества начинают исполняться, появляется возможность предсказать будущее.
-
Download / Скачать

Хотите скачать бесплатно? Зарегистрируйтесь на сайте (ссылка на регистрацию). Pirat.ca - самый быстрый торрент трекер в рунете!

Как скачивать  ·   Что такое торрент  ·   Рейтинг и ограничения

Aviraelis

Морской Волк

24

Пост 07-Янв-2013 23:46 (спустя 9 месяцев 21 день)

[Q] 

Виват сектантам)))) Фильм в стиле Свидетелей Иеговы и тд. Бред
[Профиль]  [ЛС] 
Показать сообщения:    
Ответить на тему

Текущее время: Сегодня 04:19

Часовой пояс: GMT + 4



Вы не можете начинать темы
Вы не можете отвечать на сообщения
Вы не можете редактировать свои сообщения
Вы не можете удалять свои сообщения
Вы не можете голосовать в опросах
Вы не можете прикреплять файлы к сообщениям
Вы не можете скачивать файлы

▼ Вниз