ML
     
  Уважаемый Гость!
Вы можете поддержать проект и зарегистрироваться у наших партнеров - онлайн-стратегия MyLands. При регистрации в игре Вы получите код, который сможете активировать после регистрации на pirat.ca и получить 1000 дублонов.

Ваш код:
e6008d9811a0b6a1393c3dc51ecd7bc35637bc21
 
     

Известная Вселенная / Known Universe (3 сезон: 1-7 эпизод) (Джон Бренкус / John Brenkus) [2011 г., Документальный, SATRip] (VO)

Ответить на тему
 
Автор
Сообщение

Пост 30-Ноя-2011 04:54

[Q] 

fallout3vovan

Лоцман

Известная Вселенная. 3 сезон (1-7 эпизод) / Known Universe
Год выпуска: 2011
Производство: США
Жанр: Документальный
Продолжительность: 7х~00:45
Перевод: Профессиональный (одноголосый)
Оригинальный аудиопоток: Отсутствует
Режиссер: Джон Бренкус / John Brenkus
Описание: Вы когда-нибудь задумывались о том, что было бы с нами, если бы Земля попала в Черную дыру? Или о том, что путешествие по туннелям временного пространства стало бы реальностью? Может ли наша планета выдержать столкновение с крупным метеоритом, подобное тому, что уничтожило динозавров в доисторические времена? Из цикла программ "Известная Вселенная" вы сможете узнать о многочисленных загадках космоса. Приготовьтесь изучить вселенную вместе с National Geographic! От самого маленького атома до целых галактик! Путешествие начнется с нано частиц Земли, и сквозь атмосферу дойдет до масштабов новых галактик. Узнайте больше о силе Космоса и свете молодых Галактик - это отголосок Большого Взрыва, сформировавшего Вселенную.
Эта уникальная и увлекательная научно-популярная программа возвращается с третьим сезоном, в котором нас ждут новые открытия и факты о строении Вселенной, и о том мире, который, как мы думали, известен нам. Мы познакомимся с перспективами исследования нашей Солнечной системы.
1.Выживание в космосе / Surviving outer space. Если вы хотите выжить в нашей вселенной , к этому особо не подготовишься. Космос говорит - попытайтесь. Мы испытаем человеческий организм, ведь у космоса есть арсенал способный погубить нас и каждое его оружие сильнее предыдущего. Начиная с головокружительной микрогравитации и сильных перепадов давления, до смертельного воздействия разрушающего нас изнутри.
2.Поиски сокровищ / Treasure Hunt. В изученной части вселенной есть множество сокровищ, если знать где искать. Мы разыскиваем космические богатства и каждое из них драгоценное и труднодоступное. Тут и золото , и бриллианты , и безграничная энергия , и даже ключ к самой жизни. На сколько далеко мы зайдем, сколько мы можем выдержать ? Пристегните ремни мы отправляемся на край вселенной в поисках космических сокровищ
3.Самые мощные звезды / Most Powerful Stars
Команда ученых хочет измерить самые велечайшие звезды в космосе начиная с нашего солнца, и заканчивая еще более крупными и яркими. Некоторые обладают сильными магнитными полями , а на других образуются ярчайшие вспышки
4.Экстремальная космическая техника / Extreme Space Tech
В известной нам вселенной те кто не научился приспосабливаться оказываются на задворках истории. Команда экспертов попробует преобразовать земные технологии что бы отправится на космические просторы. Каждое новое творение увеличивает нашу скорость , открывает новый путь выводя нас к новым горизонтам. рассмотрим в деталях наши изменяющиеся технологии, потому что в космосе определение экстремального получает совершенно новое значение.
5.Крупнейшие космические взрывы / Biggest Cosmic Blasts
Известная нам вселенная просто трещит по швам. Команда экспертов разберет на составляющие каждый чудовищный взрыв. Потягаются в быстроте с земным вулканом и найдут инопланетный вулкан. Как же определить что на другой планете происходит извержение вулкана ? Взрывы могут быть невыносимо холодными или обжигающе горячими или же настолько огромными что захватывают целые галактики.
6.Строительная зона / Construction zone
Если хотите построить что либо в открытом космосе , приготовьтесь к неожиданностям. Мы создаем в космосе невиданные горизонты при помощи загадочных инструментов, странной техники под час даже иногда опасной. Бывают конструкции движутся сами собой . И так мы двигаемся напрямик к необычайной строительной площадке.
7.Оторваться от Земли / Escaping earth
Если вы пытаетесь оторваться от земли готовьтесь к большому взрыву. Мы пытаемся достигнуть глубин космоса любыми возможными способами. Как далеко и насколько быстро мы сможем путешествовать, какие технологии позволят нам туда добраться ? Не пропустите наше путешествие во вселенной ближе чем вы думаете.
Источник/Качество: SATRip
Формат: AVI
Видео кодек: XviD
Аудио кодек: MP3
Видео: Xvid , 704x420 , 25.00fps , 1752kbps
Аудио: MPEG Audio Layer 3 , 48000Hz stereo , 192kbps
Субтитры: нет
Video
ID : 0
Format : MPEG-4 Visual
Format profile : Advanced [email protected]
Format settings, BVOP : 1
Format settings, QPel : No
Format settings, GMC : No warppoints
Format settings, Matrix : Custom
Codec ID : XVID
Codec ID/Hint : XviD
Duration : 45mn 1s
Bit rate : 1 753 Kbps
Width : 704 pixels
Height : 420 pixels
Display aspect ratio : 1.676
Frame rate : 25.000 fps
Color space : YUV
Chroma subsampling : 4:2:0
Bit depth : 8 bits
Scan type : Progressive
Compression mode : Lossy
Bits/(Pixel*Frame) : 0.237
Stream size : 565 MiB (90%)
Writing library : XviD 63
Audio
ID : 1
Format : MPEG Audio
Format version : Version 1
Format profile : Layer 3
Codec ID : 55
Codec ID/Hint : MP3
Duration : 45mn 1s
Bit rate mode : Constant
Bit rate : 192 Kbps
Channel(s) : 2 channels
Sampling rate : 48.0 KHz
Compression mode : Lossy
Stream size : 61.8 MiB (10%)
Alignment : Aligned on interleaves
Interleave, duration : 40 ms (1.00 video frame)
Interleave, preload duration : 504 ms






Download / Скачать

Хотите скачать бесплатно? Зарегистрируйтесь на сайте (ссылка на регистрацию). Pirat.ca - самый быстрый торрент трекер в рунете!

Как скачивать  ·   Что такое торрент  ·   Рейтинг и ограничения



Последний раз редактировалось: fallout3vovan (2011-12-02 05:56), всего редактировалось 2 раз(а)

ParMarVarKar

Шкипер

Пост 22-Янв-2012 19:37 (спустя 1 месяц 22 дня)

[Q] 

Что может быть круче космоса? Спасибо автору!
[Профиль]  [ЛС] 

olmed

Корсар

Пост 23-Янв-2012 19:01 (спустя 23 часа)

[Q] 

красота
[Профиль]  [ЛС] 

maximka2006

Морской Волк

Пост 24-Окт-2014 22:47 (спустя 2 года 9 месяцев)

[Q] 

Можно скорости прибавить? Второй день не могу скачать((
[Профиль]  [ЛС] 

AnastasWolf

3476

Пост 25-Окт-2014 00:49 (спустя 2 часа 1 минута)

[Q] 

maximka2006, так сида же не было 9 дней. Для привлечения внимания существует кнопка "позвать скачавших". И, пожалуйста, не спрашивай меня где она находится.

_________________
[Профиль]  [ЛС] 
Показать сообщения:    
Ответить на тему

Текущее время: Сегодня 02:01

Часовой пояс: GMT + 4



Вы не можете начинать темы
Вы не можете отвечать на сообщения
Вы не можете редактировать свои сообщения
Вы не можете удалять свои сообщения
Вы не можете голосовать в опросах
Вы не можете прикреплять файлы к сообщениям
Вы не можете скачивать файлы

▼ Вниз