ML
     
  Уважаемый Гость!
Вы можете поддержать проект и зарегистрироваться у наших партнеров - онлайн-стратегия MyLands. При регистрации в игре Вы получите код, который сможете активировать после регистрации на pirat.ca и получить 1000 дублонов.

Ваш код:
6f9ab67d502902cc72a06c406977ddb589b7f39d
 
     

В мире дикой природы. Долина смерти / Into The Wilderness. Death Valley (Тодд Германн) [2010 г., документальный, HDTVRip] (VO)

Ответить на тему
 
Автор
Сообщение

Пост 02-Дек-2011 13:52

[Q] 

seluson

Штурман

В мире дикой природы. Долина смерти / Into The Wilderness. Death Valley
Год выпуска: 2010
Производство: США, NGC Network International, LLC
Жанр: документальный
Продолжительность: 00:49:55
Перевод:Профессиональный (одноголосный)-Режиссер: Тодд Германн
Описание: Долина смерти. Межгорная впадина в Калифорнии. Одно из самых суровых и безжизненных мест на планете. По иронии судьбы самый засушливый регион западного полушария находится над крупнейшей подземной водной системой США. А этот водоем хранит в себе крохотную рыбку, которая существовала ещё в Ледниковом периоде. Их осталось всего пара сотен.
Источник/Качество: HDTVRip
Формат: AVI
Видео кодек: XviD
Видео: 720x400 (1.80:1), 25 fps, XviD build 47 ~1799 kbps avg, 0.25 bit/pixel
Аудио: 48 kHz, AC3 Dolby Digital, 2/0 (L,R) ch, ~192.00 kbps avg
Формат : AVI
Формат/Информация : Audio Video Interleave
Размер файла : 715 Мбайт
Продолжительность : 49 м.
Общий поток : 2002 Кбит/сек
Программа кодирования : VirtualDubMod 1.5.10.2 (build 2540/release)
Библиотека кодирования : VirtualDubMod build 2540/release
Видео
Идентификатор : 0
Формат : MPEG-4 Visual
Профиль формата : Advanced [email protected]
Параметр BVOP формата : 2
Параметр QPel формата : Нет
Параметр GMC формата : Без точки перехода
Параметр матрицы формата : Default (H.263)
Идентификатор кодека : XVID
Идентификатор кодека/Подсказка : XviD
Продолжительность : 49 м.
Битрейт : 1800 Кбит/сек
Ширина : 720 пикс.
Высота : 400 пикс.
Соотношение сторон : 16:9
Частота кадров : 25,000 кадр/сек
Цветовое пространство : YUV
Подвыборка цветности : 4:2:0
Битовая глубина : 8 бит
Тип развёртки : Прогрессивная
Метод сжатия : С потерями
Бит/(Пиксели*Кадры) : 0.250
Размер потока : 643 Мбайт (90%)
Библиотека кодирования : XviD 1.2.0.dev47 (UTC 2006-11-01)
Аудио
Идентификатор : 1
Формат : AC-3
Формат/Информация : Audio Coding 3
Расширение режима : CM (complete main)
Идентификатор кодека : 2000
Продолжительность : 49 м.
Вид битрейта : Постоянный
Битрейт : 192 Кбит/сек
Каналы : 2 канала
Расположение каналов : Front: L R
Частота : 48,0 КГц
Битовая глубина : 16 бит
Метод сжатия : С потерями
Размер потока : 68,6 Мбайт (10%)
Выравнивание : Разделение по промежуткам
Продолжительность промежутка : 40 мс. (1,00 видеокадр)
Время предзагрузки промежутка : 500 ms



Download / Скачать

Хотите скачать бесплатно? Зарегистрируйтесь на сайте (ссылка на регистрацию). Pirat.ca - самый быстрый торрент трекер в рунете!

Как скачивать  ·   Что такое торрент  ·   Рейтинг и ограничения



Последний раз редактировалось: seluson (2011-12-02 21:09), всего редактировалось 1 раз
Показать сообщения:    
Ответить на тему

Текущее время: Сегодня 16:33

Часовой пояс: GMT + 4



Вы не можете начинать темы
Вы не можете отвечать на сообщения
Вы не можете редактировать свои сообщения
Вы не можете удалять свои сообщения
Вы не можете голосовать в опросах
Вы не можете прикреплять файлы к сообщениям
Вы не можете скачивать файлы

▼ Вниз