ML
     
  Уважаемый Гость!
Вы можете поддержать проект и зарегистрироваться у наших партнеров - онлайн-стратегия MyLands. При регистрации в игре Вы получите код, который сможете активировать после регистрации на pirat.ca и получить 1000 дублонов.

Ваш код:
822959f93c00d34653763d5bbf9ee9a7134af98a
 
     

Последние дни Усамы бен Ладена / The last days of Osama Bin Laden (Jack Smith) [2011 г., Документальный, SATRip] MVO

Ответить на тему
 
Автор
Сообщение

Пост 18-Мар-2012 22:14

[Q] 

UcrusPazzo

Последние дни Усамы бен Ладена /
The last days of Osama Bin Laden
-Год выпуска: 2011
Производство: США, National Geographic Channels
Жанр: Документальный
Продолжительность серии: 00:44:18
Перевод: Профессиональный (одноголосый, закадровый)
Субтитры: отсутствуют-Режиссер: Jack Smith-Описание: Ведущий Питер Верген, рассказывает о том как ЦРУ собирало данные разведки и готовило нападение, во время которого был убит бен Ладен.-Источник/Качество: SATRip
Формат: AVI
Видео кодек: XviD
Аудио кодек: MP3
Видео: 704x400 (1.76:1), 25 fps, XviD MPEG-4 ~1495 kbps avg, 0.21 bit/pixel
Аудио: 48 kHz, MPEG Layer 3, 2 ch, ~128.00 kbps avg
Общее
Формат : AVI
Формат/Информация : Audio Video Interleave
Размер файла : 518 Мбайт
Продолжительность : 44 м.
Общий поток : 1633 Кбит/сек
Библиотека кодирования : VirtualDub build 32507/release
Видео
Идентификатор : 0
Формат : MPEG-4 Visual
Профиль формата : Advanced [email protected]
Параметр BVOP формата : 2
Параметр QPel формата : Нет
Параметр GMC формата : Без точки перехода
Параметр матрицы формата : Default (H.263)
Режим смешивания : Сжатый битовый поток
Идентификатор кодека : XVID
Идентификатор кодека/Подсказка : XviD
Продолжительность : 44 м.
Битрейт : 1495 Кбит/сек
Ширина : 704 пикселя
Высота : 400 пикселей
Соотношение сторон : 16:9
Частота кадров : 25,000 кадров/сек
Цветовое пространство : YUV
Субдискретизация насыщенности : 4:2:0
Битовая глубина : 8 бит
Тип развёртки : Прогрессивная
Метод сжатия : С потерями
Бит/(Пиксели*Кадры) : 0.212
Размер потока : 474 Мбайт (92%)
Библиотека кодирования : XviD 64
Аудио
Идентификатор : 1
Формат : MPEG Audio
Версия формата : Version 1
Профиль формата : Layer 3
Режим : Joint stereo
Идентификатор кодека : 55
Идентификатор кодека/Подсказка : MP3
Продолжительность : 44 м.
Вид битрейта : Постоянный
Битрейт : 128 Кбит/сек
Каналы : 2 канала
Частота : 48,0 КГц
Метод сжатия : С потерями
Размер потока : 40,6 Мбайт (8%)
Выравнивание : Разделение по промежуткам
Продолжительность промежутка : 40 мс. (1,00 видеокадр)
Время предзагрузки промежутка : 1000 мс.
Download / Скачать

Хотите скачать бесплатно? Зарегистрируйтесь на сайте (ссылка на регистрацию). Pirat.ca - самый быстрый торрент трекер в рунете!

Как скачивать  ·   Что такое торрент  ·   Рейтинг и ограничения



Последний раз редактировалось: UcrusPazzo (2013-05-19 17:00), всего редактировалось 1 раз

Marketing

Лоцман

Пост 19-Мар-2012 00:40 (спустя 2 часа 26 минут)

[Q] 

Спасибо)))Посмотрим,что там нового расскажут.
[Профиль]  [ЛС] 

Valf66

Морской Волк

Пост 19-Мар-2012 16:52 (спустя 16 часов)

[Q] 

"Да был ли мальчик-то, может, мальчика-то и не было?"
[Профиль]  [ЛС] 

me14

999

Пост 19-Мар-2012 20:27 (спустя 3 часа)

[Q] 


_________________
Если вы все еще не забанены - это не ваша заслуга, а модераторская недоработка.
[Профиль]  [ЛС] 
Показать сообщения:    
Ответить на тему

Текущее время: Сегодня 05:57

Часовой пояс: GMT + 4



Вы не можете начинать темы
Вы не можете отвечать на сообщения
Вы не можете редактировать свои сообщения
Вы не можете удалять свои сообщения
Вы не можете голосовать в опросах
Вы не можете прикреплять файлы к сообщениям
Вы не можете скачивать файлы

▼ Вниз