ML
     
  Уважаемый Гость!
Вы можете поддержать проект и зарегистрироваться у наших партнеров - онлайн-стратегия MyLands. При регистрации в игре Вы получите код, который сможете активировать после регистрации на pirat.ca и получить 1000 дублонов.

Ваш код:
a01a592a88af5f9996a6d1baec61b18a1769954d
 
     

С точки зрения науки: Параллельные миры / Naked Science: Living in a Parallel Universe [2011 г., документальный, SATRip] (VO)

Ответить на тему
 
Автор
Сообщение

Пост 05-Дек-2011 14:53

[Q] 

seluson

Штурман

С точки зрения науки: Параллельные миры / Naked Science: Living in a Parallel Universe
Год выпуска: 2011
Производство: США, National Geographic
Жанр: документальный
Продолжительность: 00:43:55
Перевод: Профессиональный (одноголосый закадровый)
Описание: Скрытые миры с альтернативной реальностью, возможно, кажутся фантастикой, но многие из ведущих ученых считают, что они действительно существуют.
Источник/Качество: SATRip
Формат: AVI
Видео кодек: XviD
Аудио кодек: AC3
Видео: 704x400 (1.76:1), 25 fps, XviD build 47 ~1799 kbps avg, 0.26 bit/pixel
Аудио: 48 kHz, AC3 Dolby Digital, 2/0 (L,R) ch, ~192.00 kbps avg
Полное имя : I:\Living_in_a_Parallel_Universe.avi
Формат : AVI
Формат/Информация : Audio Video Interleave
Размер файла : 629 Мбайт
Продолжительность : 43 м.
Общий поток : 2002 Кбит/сек
Программа кодирования : VirtualDubMod 1.5.10.2 (build 2540/release)
Библиотека кодирования : VirtualDubMod build 2540/release
Видео
Идентификатор : 0
Формат : MPEG-4 Visual
Профиль формата : Advanced [email protected]
Параметр BVOP формата : 2
Параметр QPel формата : Нет
Параметр GMC формата : Без точки перехода
Параметр матрицы формата : Default (H.263)
Идентификатор кодека : XVID
Идентификатор кодека/Подсказка : XviD
Продолжительность : 43 м.
Битрейт : 1800 Кбит/сек
Ширина : 704 пикселя
Высота : 400 пикселей
Соотношение сторон : 16:9
Частота кадров : 25,000 кадров/сек
Цветовое пространство : YUV
Субдискретизация насыщенности : 4:2:0
Битовая глубина : 8 бит
Тип развёртки : Прогрессивная
Метод сжатия : С потерями
Бит/(Пиксели*Кадры) : 0.256
Размер потока : 565 Мбайт (90%)
Библиотека кодирования : XviD 1.2.0.dev47 (UTC 2006-11-01)
Аудио
Идентификатор : 1
Формат : AC-3
Формат/Информация : Audio Coding 3
Расширение режима : CM (complete main)
Идентификатор кодека : 2000
Продолжительность : 43 м.
Вид битрейта : Постоянный
Битрейт : 192 Кбит/сек
Каналы : 2 канала
Расположение каналов : Front: L R
Частота : 48,0 КГц
Битовая глубина : 16 бит
Метод сжатия : С потерями
Размер потока : 60,3 Мбайт (10%)
Выравнивание : Разделение по промежуткам
Продолжительность промежутка : 40 мс. (1,00 видеокадр)
Время предзагрузки промежутка : 500 мс.



Download / Скачать

Хотите скачать бесплатно? Зарегистрируйтесь на сайте (ссылка на регистрацию). Pirat.ca - самый быстрый торрент трекер в рунете!

Как скачивать  ·   Что такое торрент  ·   Рейтинг и ограничения

Воффка

Морской Волк

Пост 24-Дек-2011 20:40 (спустя 19 дней)

[Q] 

Спасибо!

_________________
-= Водка, шлюхи, Death Metal!!!=-
[Профиль]  [ЛС] 

alex3000

Шкипер

Пост 25-Авг-2012 15:29 (спустя 8 месяцев)

[Q] 

[Профиль]  [ЛС] 

ara1205

69740

Пост 23-Сен-2012 19:08 (спустя 29 дней)

[Q] 

[Профиль]  [ЛС] 

Masterion

Морской Волк

Пост 29-Ноя-2012 22:33 (спустя 2 месяца 6 дней)

[Q] 

[Профиль]  [ЛС] 

gatzelyuck

Лоцман

Пост 19-Дек-2012 11:56 (спустя 19 дней)

[Q] 

Спасибо!
[Профиль]  [ЛС] 

Pirat38rus

Корсар

Пост 02-Янв-2013 21:26 (спустя 14 дней)

[Q] 

[Профиль]  [ЛС] 
Показать сообщения:    
Ответить на тему

Текущее время: Сегодня 09:47

Часовой пояс: GMT + 4



Вы не можете начинать темы
Вы не можете отвечать на сообщения
Вы не можете редактировать свои сообщения
Вы не можете удалять свои сообщения
Вы не можете голосовать в опросах
Вы не можете прикреплять файлы к сообщениям
Вы не можете скачивать файлы

▼ Вниз