ML
     
  Уважаемый Гость!
Вы можете поддержать проект и зарегистрироваться у наших партнеров - онлайн-стратегия MyLands. При регистрации в игре Вы получите код, который сможете активировать после регистрации на pirat.ca и получить 1000 дублонов.

Ваш код:
c89b4b6523eaac3173e9a9c062ac1a19db575961
 
     

MS-13: Самая жестокая банда в мире / World's Most Dangerous Gang (National Geographic) [2005 г., документальный, DVDRip] (VO)

Ответить на тему
 
Автор
Сообщение

Пост 07-Дек-2011 16:15

[Q] 

seluson

Штурман

MS-13: Самая жестокая банда в мире / World's Most Dangerous Gang-- Год выпуска: 2005
Производство: США, National Geographic
Жанр: документальный
Продолжительность: 00:47:16
Перевод: Профессиональный (одноголосый)-Режиссер: National Geographic-Описание: Мы расследуем деятельность кровавой бандитской группировки, окрещенной ФБР "новой мафией". Эта банда, известная как "Мара Сальватруча", или "МS-13" охватывает преступной сетью разные страны, неся угрозу международной безопасности. MS-13 является одной из самых жестоких банд в США. Она занимается почти всеми видами преступного бизнеса, начиная от воровства, и заканчивая торговлей оружием. La Mara Salvatrucha подозревается в связях с международной террористической организацией "Аль-Каеда". По данным полиции, в течение нескольких лет МS-13 поставляла террористам различные виды стрелкового оружия. Кроме того, бандиты помогали исламистам проникать на территорию США.-Источник/Качество: DVDRip
Формат: AVI
Видео кодек: XviD
Аудио кодек: MP3
Видео: 704x384 (1.83:1), 29.970 fps, XviD MPEG-4 ~1817 kbps avg, 0.22 bit/pixel
Аудио: 32 kHz, MPEG Layer 3, 2 ch, ~128.00 kbps avg-
Полное имя : E:\NG.MS.13.samaja.zhestokaja.banda.v.mire.avi
Формат : AVI
Формат/Информация : Audio Video Interleave
Размер файла : 661 Мбайт
Продолжительность : 47 м.
Общий поток : 1956 Кбит/сек
Программа кодирования : VirtualDubModRus 1.5.10.2 (build 2542/release)
Библиотека кодирования : VirtualDubMod build 2542/release
Видео
Идентификатор : 0
Формат : MPEG-4 Visual
Профиль формата : Advanced [email protected]
Параметр BVOP формата : 2
Параметр QPel формата : Нет
Параметр GMC формата : Без точки перехода
Параметр матрицы формата : Default (H.263)
Режим смешивания : Сжатый битовый поток
Идентификатор кодека : XVID
Идентификатор кодека/Подсказка : XviD
Продолжительность : 47 м.
Битрейт : 1817 Кбит/сек
Ширина : 704 пикселя
Высота : 384 пикселя
Соотношение сторон : 16:9
Частота кадров : 29,970 кадров/сек
Цветовое пространство : YUV
Субдискретизация насыщенности : 4:2:0
Битовая глубина : 8 бит
Тип развёртки : Прогрессивная
Метод сжатия : С потерями
Бит/(Пиксели*Кадры) : 0.224
Размер потока : 614 Мбайт (93%)
Библиотека кодирования : XviD 1.1.2 (UTC 2006-11-01)
Аудио
Идентификатор : 1
Формат : MPEG Audio
Версия формата : Version 1
Профиль формата : Layer 3
Режим : Joint stereo
Расширение режима : MS Stereo
Идентификатор кодека : 55
Идентификатор кодека/Подсказка : MP3
Продолжительность : 47 м.
Вид битрейта : Постоянный
Битрейт : 128 Кбит/сек
Каналы : 2 канала
Частота : 32,0 КГц
Метод сжатия : С потерями
Размер потока : 43,3 Мбайт (7%)
Выравнивание : Соединение по промежуткам
Продолжительность промежутка : 36 мс. (1,08 видеокадр)
Время предзагрузки промежутка : 504 мс.
--




Download / Скачать

Хотите скачать бесплатно? Зарегистрируйтесь на сайте (ссылка на регистрацию). Pirat.ca - самый быстрый торрент трекер в рунете!

Как скачивать  ·   Что такое торрент  ·   Рейтинг и ограничения

GrzdusNick

Шкипер

Пост 22-Янв-2012 03:32 (спустя 1 месяц 14 дней)

[Q] 

спасибо!
слышал о банде
глянемс

_________________
[Профиль]  [ЛС] 

GrzdusNick

Шкипер

Пост 22-Янв-2012 03:35 (спустя 2 минуты)

[Q] 

еще бы об ангелах ада посмотреть. нет такого?

_________________
[Профиль]  [ЛС] 

alex77111

Штурман

Пост 16-Май-2012 19:48 (спустя 3 месяца 25 дней)

[Q] 

спссиб.

_________________
Владеющий информацией - владеет миром...
[Профиль]  [ЛС] 

sorrr

Корсар

316

Пост 08-Июн-2012 13:42 (спустя 22 дня)

[Q] 

позже заберу, спасибо!

_________________
Подпись отключена за нарушение правил форума
[Профиль]  [ЛС] 

miner804

Морской Волк

Пост 17-Ноя-2012 09:42 (спустя 5 месяцев 8 дней)

[Q] 

Уроды...
[Профиль]  [ЛС] 

pinaszxc

Шкипер

Пост 23-Ноя-2012 00:24 (спустя 5 дней)

[Q] 

Показать бы такое по российским каналам!!!
[Профиль]  [ЛС] 

Aviraelis

Морской Волк

24

Пост 07-Янв-2013 23:43 (спустя 1 месяц 14 дней)

[Q] 

Создатели фильма явно далеки от Чекатилы, Солнцевской братвы и московских братков:)))) Американцы дети против наших ребят!
[Профиль]  [ЛС] 
Показать сообщения:    
Ответить на тему

Текущее время: Сегодня 22:31

Часовой пояс: GMT + 4



Вы не можете начинать темы
Вы не можете отвечать на сообщения
Вы не можете редактировать свои сообщения
Вы не можете удалять свои сообщения
Вы не можете голосовать в опросах
Вы не можете прикреплять файлы к сообщениям
Вы не можете скачивать файлы

▼ Вниз