ML
     
  Уважаемый Гость!
Вы можете поддержать проект и зарегистрироваться у наших партнеров - онлайн-стратегия MyLands. При регистрации в игре Вы получите код, который сможете активировать после регистрации на pirat.ca и получить 1000 дублонов.

Ваш код:
5f4e94775bc0501caff7b254e79328d304c817d9
 
     

Самые ужасные привидения / World`s Scariest Ghosts-Caught on tape (Don Wainer / Дон Уэйнер) [2000 г., Документалистика, TVRip] (DVO)

Ответить на тему
 
Автор
Сообщение

Пост 08-Дек-2011 16:21

[Q] 

leha1975

Гроза морей

Самые ужасные привидения / World`s Scariest Ghosts-Caught on tape Год выпуска: 2000Производство: СШАЖанр: ДокументалистикаПродолжительность: 00:44:00Перевод: Двухголосый закадровыйОригинальный аудиопоток: ОтсутствуетРежиссер: Don Wainer / Дон УэйнерВ ролях: ЛюдиОписание: Люди, о которых пойдет речь, считают, что им удалось снять на пленку настоящих призраков. Эти записи поражают, тревожат и пугают... Но подлинность каждой из них подтвердить невозможно! Достоверны ли они - решать только Вам! Итак, вы верите в призраков? Вы будете потрясены самыми жуткими привидениями, снятыми на пленку! Источник/Качество: TVRipФормат: AVIВидео кодек: XviDАудио кодек: MP3Видео: 640x480 (1.33:1) 25 fps XviD MPEG-4 1384 kbps avg 0.18 bit/pixelАудио: 44.100 kHz MPEG Layer 3 2 ch 128.00 kbps avg
G:\pirat.ca\раздачи\Самые ужасные привидения.avi
General
Complete name : G:\pirat.ca\раздачи\Самые ужасные привидения.avi
Format : AVI
Format/Info : Audio Video Interleave
File size : 471 MiB
Duration : 43mn 15s
Overall bit rate : 1 522 Kbps
Writing library : VirtualDub-MPEG2 build 24600/release
Video #0
ID : 0
Format : MPEG-4 Visual
Format profile : Advanced [email protected]
Format settings, BVOP : Yes
Format settings, QPel : No
Format settings, GMC : No warppoints
Format settings, Matrix : Default (H.263)
Muxing mode : Packed bitstream
Codec ID : XVID
Codec ID/Hint : XviD
Duration : 43mn 15s
Bit rate : 1 384 Kbps
Width : 640 pixels
Height : 480 pixels
Display aspect ratio : 4:3
Frame rate : 25.000 fps
Resolution : 8 bits
Colorimetry : 4:2:0
Scan type : Progressive
Bits/(Pixel*Frame) : 0.180
Stream size : 428 MiB (91%)
Writing library : XviD 1.1.2 (UTC 2006-11-01)
Audio #1
ID : 1
Format : MPEG Audio
Format version : Version 1
Format profile : Layer 3
Mode : Joint stereo
Format_Settings_ModeExtension : MS Stereo
Codec ID : 55
Codec ID/Hint : MP3
Duration : 43mn 15s
Bit rate mode : Constant
Bit rate : 128 Kbps
Channel(s) : 2 channels
Sampling rate : 44.1 KHz
Stream size : 39.6 MiB (8%)
Alignment : Split accross interleaves
Interleave, duration : 40 ms (1.00 video frame)
Interleave, preload duration : 500 ms
Download / Скачать

Хотите скачать бесплатно? Зарегистрируйтесь на сайте (ссылка на регистрацию). Pirat.ca - самый быстрый торрент трекер в рунете!

Как скачивать  ·   Что такое торрент  ·   Рейтинг и ограничения

TUS7884

Флибустьер

Пост 11-Ноя-2012 18:55 (спустя 11 месяцев 3 дня)

[Q] 

[Профиль]  [ЛС] 

FruTT

Корсар

2

Пост 13-Фев-2013 20:28 (спустя 3 месяца 2 дня)

[Q] 

ого как..

_________________
Подпись отключена за нарушение правил форума
[Профиль]  [ЛС] 

Фтещт

Корсар

61

Пост 02-Июн-2013 00:26 (спустя 3 месяца 16 дней)

[Q] 

[Профиль]  [ЛС] 
Показать сообщения:    
Ответить на тему

Текущее время: Сегодня 15:39

Часовой пояс: GMT + 4



Вы не можете начинать темы
Вы не можете отвечать на сообщения
Вы не можете редактировать свои сообщения
Вы не можете удалять свои сообщения
Вы не можете голосовать в опросах
Вы не можете прикреплять файлы к сообщениям
Вы не можете скачивать файлы

▼ Вниз