ML
     
  Уважаемый Гость!
Вы можете поддержать проект и зарегистрироваться у наших партнеров - онлайн-стратегия MyLands. При регистрации в игре Вы получите код, который сможете активировать после регистрации на pirat.ca и получить 1000 дублонов.

Ваш код:
ea554e7ed3eacceeae87a8b30a9de3f086c18a84
 
     

Книга заклинаний (Дмитрий Комов) [2008 г., Документальный, SATRip]

Ответить на тему
 
Автор
Сообщение

Пост 29-Окт-2011 10:31

[Q] 

Степаныч

Книга заклинаний
Год выпуска: 2008
Страна: Россия
Жанр: Документальный
Продолжительность: 00:44:22
Режиссер: Дмитрий Комов
Описание: За этой книгой охотятся искатели сокровищ, члены изотерических сект, и тайных мистических обществ. Уже больше тысячи лет её деревянные страницы хранят заветные знания о строении мира, тёмное послание языческих богов. Тот, кто прочтёт их, сможет управлять вселенной… Велесова книга – собрание магических текстов древних славян существует уже больше тысячи лет. Всё это время она путешествует по странам и континентам, но до сих пор никто не смог расшифровать написанные в ней заклинания. Возможно это и к лучшему, старинные заклятия обладают такой силой, что с их помощью по неосторожности или же злому умыслу, можно разрушить мир.
Качество: SATRip
Формат: AVI
Видео кодек: XviD
Аудио кодек: MP3
Видео: MPEG4, XviD, 720x544 (4/3), 25.000 fps, 1 883 Kbps (0.192 bit/pixel)
Аудио: MP3, 48.0 KHz, 2 ch, 128 Kbps, CBR
Формат : AVI
Формат/Информация : Audio Video Interleave
Размер файла : 641 Мбайт
Продолжительность : 44 м.
Общий поток : 2021 Кбит/сек
Программа кодирования : VirtualDubMod 1.5.10.2 (build 2542/release)
Библиотека кодирования : VirtualDubMod build 2542/release
Видео
Идентификатор : 0
Формат : MPEG-4 Visual
Профиль формата : Advanced [email protected]
Параметр BVOP формата : 2
Параметр QPel формата : Нет
Параметр GMC формата : Без точки перехода
Параметр матрицы формата : Default (MPEG)
Режим смешивания : Сжатый битовый поток
Идентификатор кодека : XVID
Идентификатор кодека/Подсказка : XviD
Продолжительность : 44 м.
Битрейт : 1883 Кбит/сек
Ширина : 720 пикс.
Высота : 544 пикс.
Соотношение сторон : 4:3
Частота кадров : 25,000 кадр/сек
Цветовое пространство : YUV
Подвыборка цветности : 4:2:0
Битовая глубина : 8 бит
Тип развёртки : Прогрессивная
Метод сжатия : С потерями
Бит/(Пиксели*Кадры) : 0.192
Размер потока : 598 Мбайт (93%)
Библиотека кодирования : XviD 1.2.1 (UTC 2008-12-04)
Аудио
Идентификатор : 1
Формат : MPEG Audio
Версия формата : Version 1
Профиль формата : Layer 3
Идентификатор кодека : 55
Идентификатор кодека/Подсказка : MP3
Продолжительность : 44 м.
Вид битрейта : Постоянный
Битрейт : 128 Кбит/сек
Канал(ы) : 2 канала(ов)
Частота : 48,0 КГц
Метод сжатия : С потерями
Размер потока : 40,6 Мбайт (6%)
Выравнивание : Соединение по промежуткам
Продолжительность промежутка : 40 мс. (1,00 видеокадр)
Время предзагрузки промежутка : 504 ms



Download / Скачать

Хотите скачать бесплатно? Зарегистрируйтесь на сайте (ссылка на регистрацию). Pirat.ca - самый быстрый торрент трекер в рунете!

Как скачивать  ·   Что такое торрент  ·   Рейтинг и ограничения



Последний раз редактировалось: Степаныч (2011-11-07 10:25), всего редактировалось 1 раз

Krukov_Aleksey

Корсар

Пост 01-Ноя-2011 12:45 (спустя 3 дня)

[Q] 

Спасибо большое
[Профиль]  [ЛС] 

daemon_chiff

Шкипер

Пост 03-Ноя-2011 07:24 (спустя 1 день 18 часов)

[Q] 

история, мистика... загадошно и интересно!
thanx!
[Профиль]  [ЛС] 

mikaneka

Лоцман

Пост 03-Ноя-2011 15:15 (спустя 7 часов)

[Q] 

Спасибо!!!
[Профиль]  [ЛС] 

C0y0te

1418

Пост 16-Янв-2012 21:35 (спустя 2 месяца 13 дней)

[Q] 

Раздающему респект
[Профиль]  [ЛС] 

UncleFather

Легенда

Пост 21-Фев-2012 19:44 (спустя 1 месяц 4 дня)

[Q] 

Спасибо раздающему. Сюжетец так себе...

_________________
Одни боялись Пью, другие - Билли Бонса, а меня... меня боялся сам Флинт
[Профиль]  [ЛС] 

TUS7884

Флибустьер

Пост 11-Ноя-2012 18:54 (спустя 8 месяцев 18 дней)

[Q] 

[Профиль]  [ЛС] 

SHERHAN

683

Пост 24-Фев-2013 11:37 (спустя 3 месяца 12 дней)

[Q] 


_________________
Рыжий хищник, полосатый,
В меру наглый и усатый,
Днём и ночью он не спит,
Зорко в монитор глядит!
[Профиль]  [ЛС] 

Фтещт

Корсар

61

Пост 10-Май-2013 12:41 (спустя 2 месяца 14 дней)

[Q] 

[Профиль]  [ЛС] 

Фтещт

Корсар

61

Пост 10-Май-2013 12:41 (спустя 23 секунды)

[Q] 

[Профиль]  [ЛС] 

Фтещт

Корсар

61

Пост 02-Июн-2013 00:25 (спустя 22 дня)

[Q] 

[Профиль]  [ЛС] 

h5n1

Гроза морей

483

Пост 14-Мар-2015 20:44 (спустя 1 год 9 месяцев)

[Q] 

Спасибо!!! Лови бочку полезно

_________________
«Мы находимся здесь, чтобы внести свой вклад в этот мир. Иначе зачем мы здесь?» S.Jobs
[Профиль]  [ЛС] 
Показать сообщения:    
Ответить на тему

Текущее время: Сегодня 12:08

Часовой пояс: GMT + 4



Вы не можете начинать темы
Вы не можете отвечать на сообщения
Вы не можете редактировать свои сообщения
Вы не можете удалять свои сообщения
Вы не можете голосовать в опросах
Вы не можете прикреплять файлы к сообщениям
Вы не можете скачивать файлы

▼ Вниз